<?xml version="1.0" standalone="no"?>
<!DOCTYPE svg PUBLIC "-//W3C//DTD SVG 1.1//EN" "http://www.w3.org/Graphics/SVG/1.1/DTD/svg11.dtd" >
<svg xmlns="http://www.w3.org/2000/svg" xmlns:xlink="http://www.w3.org/1999/xlink" version="1.1">
<metadata>
Created by FontForge 20170731 at Tue Mar  7 17:18:18 2023
 By Aleksey,,,
Copyright (c) 2020 CoType Foundry. All Rights Reserved.
</metadata>
<defs>
<font id="AeonikPro-RegularItalic" horiz-adv-x="1642" >
  <font-face 
    font-family="Aeonik Pro"
    font-weight="400"
    font-style="italic"
    font-stretch="normal"
    units-per-em="2048"
    panose-1="2 11 5 3 3 3 0 0 0 0"
    ascent="1638"
    descent="-410"
    x-height="1044"
    cap-height="1434"
    bbox="-901 -422 4477 1835"
    underline-thickness="122"
    underline-position="-532"
    slope="-10"
    unicode-range="U+000D-1F10C"
  />
<missing-glyph horiz-adv-x="1232" 
d="M123 -223v1698h1024v-1698h-1024zM444 1294q-84 0 -129 -49t-45 -135t45 -135t129 -49q66 0 106.5 38t45.5 99h-94q-13 -59 -62 -59q-71 0 -71 106q0 107 71 107q48 0 62 -62h94q-5 63 -45.5 101t-106.5 38zM807 1294q-81 0 -129.5 -52t-48.5 -132q0 -81 48 -132.5
t130 -51.5q81 0 129.5 51.5t48.5 132.5q0 80 -49 132t-129 52zM807 1004q-39 0 -59.5 29.5t-20.5 76.5q0 48 21 77.5t59 29.5t59 -29.5t21 -77.5q0 -47 -20.5 -76.5t-59.5 -29.5zM590 819h-299v-82h100v-282h96v282h103v82zM854 455v135l131 229h-106l-72 -133l-68 133h-112
l131 -229v-135h96zM416 94h57q62 0 99.5 34t37.5 91q0 58 -37.5 92.5t-99.5 34.5h-151v-364h94v112zM692 -18h256v81h-160v64h123v76h-123v61h154v82h-250v-364zM416 268h49q22 0 35.5 -13t13.5 -36q0 -22 -13.5 -34.5t-35.5 -12.5h-49v96z" />
    <glyph glyph-name="fi" unicode="fi" horiz-adv-x="1050" 
d="M1004 1438q44 0 72 -28t28 -71q0 -51 -34 -84.5t-81 -33.5q-44 0 -73 27.5t-29 70.5q0 51 35 85t82 34zM453 1044h577l-184 -1044h-168l158 891h-410l-158 -891h-168l158 891h-188l26 153h189l22 123q24 140 97 203.5t217 63.5h178l-29 -154h-156q-120 0 -141 -121z" />
    <glyph glyph-name="f_f.liga" unicode="ff" horiz-adv-x="1214" 
d="M1348 1280h-156q-120 0 -141 -121l-21 -115h275l-27 -153h-274l-158 -891h-168l158 891h-410l-158 -891h-168l158 891h-188l26 153h189l22 123q25 140 97.5 203.5t216.5 63.5h178l-29 -154h-156q-120 0 -141 -121l-20 -115h409l23 123q24 140 96.5 203.5t216.5 63.5h178z
" />
    <glyph glyph-name="f_f_i.liga" unicode="ffi" horiz-adv-x="1638" 
d="M1591 1438q44 0 72.5 -28t28.5 -71q0 -51 -34 -84.5t-81 -33.5q-44 0 -73 27.5t-29 70.5q0 51 34.5 85t81.5 34zM1040 1044h578l-184 -1044h-168l157 891h-409l-158 -891h-168l158 891h-420l-158 -891h-168l158 891h-188l26 153h189l22 123q25 140 97.5 203.5t216.5 63.5
h178l-29 -154h-156q-120 0 -141 -121l-20 -115h419l23 123q24 140 96.5 203.5t216.5 63.5h178l-28 -154h-156q-120 0 -141 -121z" />
    <glyph glyph-name="f_f_t.liga" unicode="fft" horiz-adv-x="1853" 
d="M1855 891h-264l-110 -623q-4 -32 -4 -43q0 -39 21.5 -55t72.5 -16h186l-26 -154h-187q-124 0 -180.5 48t-56.5 147q0 23 14 112l102 584h-409l-158 -891h-168l158 891h-420l-158 -891h-168l158 891h-188l26 153h189l22 123q25 140 97.5 203.5t216.5 63.5h178l-29 -154
h-156q-120 0 -141 -121l-20 -115h419l23 123q25 140 97 203.5t216 63.5h178l-28 -154h-156q-120 0 -141 -121l-21 -115h410l51 293h168l-51 -293h264z" />
    <glyph glyph-name="f_t.liga" unicode="ft" horiz-adv-x="1265" 
d="M1268 891h-264l-111 -623q-4 -32 -4 -43q0 -39 21.5 -55t72.5 -16h186l-26 -154h-187q-124 0 -180.5 48t-56.5 147q0 23 14 112l103 584h-410l-158 -891h-168l158 891h-188l26 153h189l22 123q25 140 97.5 203.5t216.5 63.5h178l-29 -154h-156q-120 0 -141 -121l-20 -115
h409l51 293h168l-51 -293h264z" />
    <glyph glyph-name="t_t.liga" unicode="tt" horiz-adv-x="1286" 
d="M1288 891h-264l-111 -623q-4 -32 -4 -43q0 -39 21.5 -55t73.5 -16h186l-27 -154h-186q-124 0 -181 48.5t-57 146.5q0 37 9 84l108 612h-430l-111 -623q-4 -32 -4 -43q0 -39 21.5 -55t73.5 -16h153l-27 -154h-153q-124 0 -181 48.5t-57 146.5q0 37 9 84l108 612h-188
l26 153h189l51 293h168l-51 -293h430l51 293h168l-51 -293h264z" />
    <glyph glyph-name=".notdef" horiz-adv-x="1232" 
d="M123 -223v1698h1024v-1698h-1024zM444 1294q-84 0 -129 -49t-45 -135t45 -135t129 -49q66 0 106.5 38t45.5 99h-94q-13 -59 -62 -59q-71 0 -71 106q0 107 71 107q48 0 62 -62h94q-5 63 -45.5 101t-106.5 38zM807 1294q-81 0 -129.5 -52t-48.5 -132q0 -81 48 -132.5
t130 -51.5q81 0 129.5 51.5t48.5 132.5q0 80 -49 132t-129 52zM807 1004q-39 0 -59.5 29.5t-20.5 76.5q0 48 21 77.5t59 29.5t59 -29.5t21 -77.5q0 -47 -20.5 -76.5t-59.5 -29.5zM590 819h-299v-82h100v-282h96v282h103v82zM854 455v135l131 229h-106l-72 -133l-68 133h-112
l131 -229v-135h96zM416 94h57q62 0 99.5 34t37.5 91q0 58 -37.5 92.5t-99.5 34.5h-151v-364h94v112zM692 -18h256v81h-160v64h123v76h-123v61h154v82h-250v-364zM416 268h49q22 0 35.5 -13t13.5 -36q0 -22 -13.5 -34.5t-35.5 -12.5h-49v96z" />
    <glyph glyph-name=".null" horiz-adv-x="1228" 
 />
    <glyph glyph-name="nonmarkingreturn" horiz-adv-x="682" 
 />
    <glyph glyph-name="CR" unicode="&#xd;" horiz-adv-x="1228" 
 />
    <glyph glyph-name="space" unicode=" " horiz-adv-x="536" 
 />
    <glyph glyph-name="exclam" unicode="!" horiz-adv-x="509" 
d="M303 428h-129l152 1006h180zM172 -12q-50 0 -79.5 27t-29.5 73q0 59 35.5 94t89.5 35q49 0 79 -28t30 -74q0 -57 -35.5 -92t-89.5 -35z" />
    <glyph glyph-name="quotedbl" unicode="&#x22;" horiz-adv-x="757" 
d="M209 936l31 397q3 47 32.5 78t75.5 31q44 0 69 -23.5t25 -60.5q0 -28 -8 -55l-100 -367h-125zM573 936l31 397q3 47 33 78t76 31q44 0 69 -23.5t25 -60.5q0 -28 -8 -55l-101 -367h-125z" />
    <glyph glyph-name="numbersign" unicode="#" horiz-adv-x="1185" 
d="M416 897l114 344h140l-113 -344h279l114 344h140l-113 -344h194l-24 -141h-215l-88 -271h211l-25 -141h-231l-115 -344h-139l112 344h-278l-115 -344h-139l113 344h-195l25 141h215l88 271h-211l24 141h232zM791 756h-279l-88 -271h278z" />
    <glyph glyph-name="dollar" unicode="$" horiz-adv-x="1243" 
d="M700 803q75 -18 135 -38.5t119 -52.5t98.5 -70.5t64 -93.5t24.5 -120q0 -207 -144 -322t-383 -118l-36 -207h-156l39 219q-186 34 -285.5 156.5t-99.5 312.5h174q3 -106 51.5 -179.5t124 -106.5t172.5 -33q166 0 264.5 66.5t98.5 195.5q0 39 -16 71.5t-43 56t-70 44
t-88.5 34.5t-106.5 29q-75 18 -135.5 38.5t-118.5 52.5t-96.5 70.5t-62 93.5t-23.5 120q0 202 142 310.5t374 113.5l37 209h155l-39 -221q163 -33 254.5 -143.5t94.5 -268.5h-175q-6 119 -93 190.5t-228 71.5q-159 0 -251.5 -64t-92.5 -188q0 -47 23 -83.5t69 -63t99 -45
t130 -37.5z" />
    <glyph glyph-name="percent" unicode="%" horiz-adv-x="1837" 
d="M532 752q-147 0 -235 83t-88 220q0 159 115 275t280 116q147 0 235.5 -83t88.5 -220q0 -159 -115.5 -275t-280.5 -116zM428 0h-170l1219 1434h170zM537 887q103 0 173 74.5t70 173.5q0 78 -49.5 127t-130.5 49q-103 0 -173.5 -74.5t-70.5 -173.5q0 -78 50 -127t131 -49z
M1300 -12q-147 0 -235 83t-88 220q0 159 115 275t280 116q147 0 235.5 -83t88.5 -220q0 -159 -115.5 -275t-280.5 -116zM1305 123q103 0 173 74.5t70 173.5q0 78 -49.5 127t-130.5 49q-103 0 -173.5 -74.5t-70.5 -173.5q0 -78 50 -127t131 -49z" />
    <glyph glyph-name="ampersand" unicode="&#x26;" horiz-adv-x="1478" 
d="M1030 285l47 -70q44 -65 127 -65h144l-25 -150h-141q-85 0 -137 24t-93 82l-47 66q-211 -184 -442 -184q-177 0 -288.5 86t-111.5 237q0 312 416 471q-53 81 -76.5 146.5t-23.5 144.5q0 165 119.5 269t310.5 104q151 0 238.5 -80t87.5 -201q0 -279 -412 -442q4 -4 12 -16
l209 -301l307 368h183zM795 1305q-107 0 -172.5 -59t-65.5 -167q0 -58 20.5 -111t67.5 -126q156 60 237 128.5t81 168.5q0 73 -45.5 119.5t-122.5 46.5zM487 135q174 0 338 152l-268 383q-155 -59 -234 -134t-79 -194q0 -100 65.5 -153.5t177.5 -53.5z" />
    <glyph glyph-name="quotesingle" unicode="'" horiz-adv-x="393" 
d="M209 936l31 397q3 47 32.5 78t75.5 31q44 0 69 -23.5t25 -60.5q0 -28 -8 -55l-100 -367h-125z" />
    <glyph glyph-name="parenleft" unicode="(" horiz-adv-x="628" 
d="M459 -266h-174q-97 174 -143 331t-46 330q0 315 123 584.5t359 515.5h184q-254 -275 -380 -535.5t-126 -564.5q0 -173 49 -327t154 -334z" />
    <glyph glyph-name="parenright" unicode=")" horiz-adv-x="630" 
d="M203 1495h174q96 -173 142 -330.5t46 -330.5q0 -315 -122.5 -585t-358.5 -515h-184q254 275 380 535.5t126 564.5q0 173 -49 327t-154 334z" />
    <glyph glyph-name="asterisk" unicode="*" horiz-adv-x="804" 
d="M825 1280l29 -117l-270 -94l139 -203l-96 -78l-138 216l-204 -216l-82 82l207 203l-234 92l66 115l221 -109l43 263h117l-54 -265z" />
    <glyph glyph-name="plus" unicode="+" horiz-adv-x="1073" 
d="M483 657l64 359h153l-63 -359h342l-25 -141h-342l-63 -360h-154l64 360h-340l24 141h340z" />
    <glyph glyph-name="comma" unicode="," horiz-adv-x="421" 
d="M123 215q65 0 102 -47.5t37 -122.5q0 -140 -93.5 -229t-242.5 -92l6 96q90 6 140.5 47t66.5 98q7 25 4 47q-20 -26 -65 -26q-44 0 -72.5 26t-28.5 72q0 57 40 94t106 37z" />
    <glyph glyph-name="hyphen" unicode="-" horiz-adv-x="894" 
d="M784 512h-682l25 139h682z" />
    <glyph glyph-name="period" unicode="." horiz-adv-x="421" 
d="M150 215q46 0 74 -27t28 -71q0 -56 -39.5 -93.5t-93.5 -35.5q-46 2 -73.5 29t-27.5 71q0 55 39.5 91t92.5 36z" />
    <glyph glyph-name="slash" unicode="/" horiz-adv-x="716" 
d="M31 -266h-166l885 1761h165z" />
    <glyph glyph-name="zero" unicode="0" horiz-adv-x="1280" 
d="M580 -12q-207 0 -332 139.5t-133 376.5q-6 176 36 343.5t123.5 301.5t210.5 215.5t285 81.5q205 0 330 -140.5t133 -377.5q5 -140 -20.5 -276.5t-80.5 -256t-133 -211t-186.5 -144t-232.5 -52.5zM584 145q113 0 205.5 66t150 173.5t88.5 236.5t31 262q0 198 -76 301.5
t-217 103.5q-113 0 -205.5 -65.5t-150 -173t-88.5 -236.5t-31 -262q0 -197 76.5 -301.5t216.5 -104.5z" />
    <glyph glyph-name="one" unicode="1" horiz-adv-x="663" 
d="M473 1268l31 166h168l-254 -1434h-172l182 1008q-32 -23 -100 -23h-238l27 154h227q49 0 84.5 37t44.5 92z" />
    <glyph glyph-name="two" unicode="2" horiz-adv-x="1099" 
d="M-49 0l24 145l643 488q65 49 100.5 77.5t84 75.5t73.5 85t43.5 89t18.5 105q0 108 -70.5 167.5t-195.5 59.5q-144 0 -245 -91t-128 -253h-172q43 251 185.5 374.5t369.5 123.5q212 0 322 -103t110 -270q0 -63 -14.5 -120t-46.5 -108.5t-65 -93t-88.5 -89.5t-96 -79.5
t-107.5 -80.5l-477 -344h748l-29 -158h-987z" />
    <glyph glyph-name="three" unicode="3" horiz-adv-x="1157" 
d="M510 -12q-211 0 -350.5 108t-139.5 283q0 34 5 63h172q-2 -12 -2 -32q0 -126 88 -197.5t235 -71.5q165 0 266 84t101 213q0 105 -77 161t-230 56h-129l26 150h109q186 0 283.5 71.5t97.5 196.5q0 103 -83.5 161t-207.5 58q-148 0 -243.5 -70.5t-119.5 -191.5h-172
q40 207 178.5 311.5t370.5 104.5q195 0 324 -102t129 -261q0 -134 -83 -227t-224 -127q98 -24 162.5 -97.5t64.5 -191.5q0 -137 -72 -241t-196.5 -157.5t-282.5 -53.5z" />
    <glyph glyph-name="four" unicode="4" horiz-adv-x="1216" 
d="M0 350l27 174l858 910h239l-163 -926h231l-29 -158h-231l-62 -350h-172l62 350h-760zM920 1241l-697 -733h565z" />
    <glyph glyph-name="five" unicode="5" horiz-adv-x="1159" 
d="M1163 1434l-28 -158h-695l-100 -424q119 109 299 109q197 0 324 -114.5t127 -303.5q0 -245 -154 -400t-401 -155q-214 0 -343 116t-129 287q0 23 3 41h167v-14q-2 -125 82 -199t226 -74q166 0 271.5 108t105.5 267q0 133 -84 211t-218 78q-106 0 -190.5 -51t-138.5 -146
l-168 9l190 813h854z" />
    <glyph glyph-name="six" unicode="6" horiz-adv-x="1226" 
d="M586 -12q-250 0 -379 188q-90 134 -90 338q0 284 77.5 493t229 324t362.5 115q198 0 314 -109.5t110 -285.5h-168q-8 116 -74 179.5t-190 63.5q-370 0 -475 -536q-2 -11 -3.5 -22t-2.5 -15q54 103 169 165t255 62q186 0 305 -115t119 -292q0 -157 -71 -283t-199 -198
t-289 -72zM588 139q173 0 279 108.5t106 276.5q0 118 -77.5 195.5t-203.5 77.5q-175 0 -285.5 -107.5t-105.5 -271.5q3 -119 83 -199t204 -80z" />
    <glyph glyph-name="seven" unicode="7" horiz-adv-x="1056" 
d="M113 1276l28 158h1028l-18 -121l-883 -1313h-207l873 1276h-821z" />
    <glyph glyph-name="eight" unicode="8" horiz-adv-x="1214" 
d="M879 741q102 -27 164.5 -108t62.5 -199q0 -138 -77.5 -241t-206 -154t-287.5 -51q-218 0 -346 99t-128 255q0 158 98.5 268t252.5 142q-85 24 -137 99t-52 179q0 194 146.5 305t386.5 111q194 0 311 -98t117 -246q0 -143 -88 -238.5t-217 -122.5zM731 1303
q-144 0 -242 -72.5t-98 -192.5q0 -211 285 -211q144 0 242 73t98 194q0 94 -79.5 151.5t-205.5 57.5zM541 129q175 0 286 82t111 219q0 98 -86 163.5t-225 65.5q-175 0 -286.5 -82t-111.5 -219q0 -98 86.5 -163.5t225.5 -65.5z" />
    <glyph glyph-name="nine" unicode="9" horiz-adv-x="1226" 
d="M711 1446q255 0 379 -189q90 -134 90 -337q0 -430 -176.5 -681t-493.5 -251q-198 0 -314 109.5t-110 285.5h168q8 -117 74 -180.5t190 -63.5q85 0 155.5 28.5t120 76t89.5 118t65.5 146t44.5 168.5q2 11 3.5 22t2.5 15q-54 -103 -169 -165.5t-255 -62.5q-185 0 -304 115
t-119 293q0 157 71 283t199 198t289 72zM709 1294q-173 0 -279 -108.5t-106 -276.5q0 -117 77 -194.5t203 -77.5q175 0 285.5 107.5t105.5 271.5q-3 119 -82.5 198.5t-203.5 79.5z" />
    <glyph glyph-name="colon" unicode=":" horiz-adv-x="421" 
d="M289 983q46 0 74 -27t28 -71q0 -56 -39.5 -93.5t-93.5 -35.5q-46 2 -73 29t-27 71q0 55 39 91t92 36zM152 215q46 0 74 -27t28 -71q0 -56 -39.5 -93.5t-93.5 -35.5q-46 2 -73.5 29t-27.5 71q0 55 39.5 91t92.5 36z" />
    <glyph glyph-name="semicolon" unicode=";" horiz-adv-x="421" 
d="M256 983q46 0 74 -27t28 -71q0 -56 -39.5 -93.5t-93.5 -35.5q-46 2 -73 29t-27 71q0 55 39 91t92 36zM123 215q65 0 102 -47.5t37 -122.5q0 -140 -93.5 -229t-242.5 -92l6 96q90 6 140.5 47t66.5 98q7 25 4 47q-20 -26 -65 -26q-44 0 -72.5 26t-28.5 72q0 57 40 94
t106 37z" />
    <glyph glyph-name="less" unicode="&#x3c;" horiz-adv-x="1073" 
d="M885 154l-717 348l27 160l839 348l-26 -164l-639 -264l542 -265z" />
    <glyph glyph-name="equal" unicode="=" horiz-adv-x="1073" 
d="M967 707h-795l27 143h794zM893 281h-795l25 141h795z" />
    <glyph glyph-name="greater" unicode="&#x3e;" horiz-adv-x="1073" 
d="M256 1010l717 -348l-27 -160l-840 -348l27 163l637 265l-541 264z" />
    <glyph glyph-name="question" unicode="?" horiz-adv-x="1050" 
d="M569 436h-157l12 78q19 113 84.5 182t181.5 129q100 51 154.5 113t54.5 158q0 83 -61.5 138.5t-167.5 55.5q-162 0 -250.5 -83.5t-100.5 -229.5h-169q23 215 155.5 342t366.5 127q188 0 295.5 -97t107.5 -241q0 -72 -18.5 -130.5t-55 -104t-80 -79t-104.5 -67.5
q-112 -64 -168.5 -115.5t-70.5 -128.5zM426 -12q-50 0 -79.5 27t-29.5 73q0 59 35.5 94t89.5 35q49 0 79 -28t30 -74q0 -57 -35.5 -92t-89.5 -35z" />
    <glyph glyph-name="at" unicode="@" horiz-adv-x="2011" 
d="M1147 1393q174 0 322 -51t250.5 -140t160 -214.5t57.5 -270.5q0 -160 -64 -301.5t-180 -228.5t-255 -87q-92 0 -151.5 36t-69.5 108q-5 33 -3 49q-51 -86 -137.5 -138.5t-187.5 -52.5q-145 0 -241.5 83.5t-96.5 238.5q0 114 42.5 216t112 172.5t161 111.5t188.5 41
q101 0 169.5 -45.5t96.5 -116.5l57 143h133l-161 -567q-21 -77 2.5 -119.5t95.5 -42.5q93 0 170.5 74t119.5 190t42 242q0 235 -175.5 382.5t-459.5 147.5q-191 0 -358.5 -66t-286.5 -181t-187.5 -275t-68.5 -342q0 -124 44 -229t125 -181t201.5 -118.5t268.5 -42.5
q272 0 497 131l-22 -158q-88 -53 -219.5 -83t-272.5 -30q-232 0 -410.5 92.5t-274 255t-95.5 369.5q0 210 81 395.5t221 317.5t337.5 208.5t421.5 76.5zM1071 842q-153 0 -259.5 -122t-106.5 -288q0 -93 53.5 -150t146.5 -57q102 0 187 64.5t130.5 161.5t45.5 200
q0 85 -55.5 138t-141.5 53z" />
    <glyph glyph-name="A" unicode="A" horiz-adv-x="1329" 
d="M1217 0h-179l-75 387h-629l-211 -387h-195l795 1434h209zM799 1237l-377 -688h510z" />
    <glyph glyph-name="B" unicode="B" horiz-adv-x="1255" 
d="M45 0l254 1434h481q205 0 318.5 -93t113.5 -256q0 -283 -301 -356q242 -58 242 -287q0 -110 -43 -195.5t-121 -139t-183 -80.5t-233 -27h-528zM770 1272h-321l-82 -461h352q150 0 231.5 68t81.5 194q0 92 -66 145.5t-196 53.5zM672 651h-334l-86 -489h362q171 0 265 69.5
t94 206.5q0 106 -78 159.5t-223 53.5z" />
    <glyph glyph-name="C" unicode="C" horiz-adv-x="1431" 
d="M715 -12q-268 0 -435 172.5t-167 449.5q0 167 54 318.5t150.5 266.5t240.5 183t314 68q242 0 390 -131t157 -352h-174q-22 150 -123 234.5t-264 84.5q-105 0 -196 -37t-157.5 -101t-114 -149t-71.5 -184t-24 -203q0 -204 117 -330t305 -126q165 0 275.5 80t178.5 239h179
q-75 -235 -238 -359t-397 -124z" />
    <glyph glyph-name="D" unicode="D" horiz-adv-x="1394" 
d="M512 0h-467l254 1434h379q310 0 491 -168t181 -445q0 -176 -58 -327t-164.5 -260.5t-265 -171.5t-350.5 -62zM446 1270l-194 -1106h274q295 0 469 180t174 473q0 224 -132.5 338.5t-370.5 114.5h-220z" />
    <glyph glyph-name="E" unicode="E" horiz-adv-x="1132" 
d="M45 0l254 1434h903l-31 -164h-725l-79 -459h602l-29 -164h-602l-86 -483h752l-29 -164h-930z" />
    <glyph glyph-name="F" unicode="F" horiz-adv-x="1071" 
d="M45 0l254 1434h881l-31 -164h-703l-84 -479h580l-29 -164h-579l-111 -627h-178z" />
    <glyph glyph-name="G" unicode="G" horiz-adv-x="1529" 
d="M895 1446q248 0 399 -130.5t152 -348.5h-170q-15 151 -121.5 233t-271.5 82q-134 0 -246.5 -56.5t-187 -151.5t-115.5 -218t-41 -258q0 -197 114 -321.5t302 -124.5q202 0 343.5 111.5t172.5 297.5l8 51h-430l28 164h605l-138 -776h-151l18 203q-36 -44 -74.5 -78.5
t-94 -67.5t-130.5 -51t-164 -18q-268 0 -429.5 171t-161.5 441q0 172 55.5 326t155 269.5t248 183t325.5 67.5z" />
    <glyph glyph-name="H" unicode="H" horiz-adv-x="1363" 
d="M45 0l254 1434h178l-110 -623h729l110 623h178l-254 -1434h-178l115 647h-729l-115 -647h-178z" />
    <glyph glyph-name="I" unicode="I" horiz-adv-x="456" 
d="M45 0l254 1434h178l-254 -1434h-178z" />
    <glyph glyph-name="J" unicode="J" horiz-adv-x="716" 
d="M369 354l190 1080h178l-194 -1102q-59 -332 -391 -332h-193l31 164h157q97 0 151 46.5t71 143.5z" />
    <glyph glyph-name="K" unicode="K" horiz-adv-x="1318" 
d="M1184 1434h235l-637 -607l420 -827h-201l-360 700l-350 -327l-68 -373h-178l254 1434h178l-145 -799z" />
    <glyph glyph-name="L" unicode="L" horiz-adv-x="1009" 
d="M877 0h-832l254 1434h178l-225 -1270h653z" />
    <glyph glyph-name="M" unicode="M" horiz-adv-x="1734" 
d="M45 0l254 1434h223l291 -1192l715 1192h227l-254 -1434h-174l201 1130l-674 -1130h-158l-276 1130l-201 -1130h-174z" />
    <glyph glyph-name="N" unicode="N" horiz-adv-x="1386" 
d="M219 0h-174l254 1434h145l586 -1127l203 1127h174l-254 -1434h-162l-575 1106z" />
    <glyph glyph-name="O" unicode="O" horiz-adv-x="1529" 
d="M729 -12q-280 0 -448 173t-168 447q0 229 93.5 419.5t267.5 304.5t394 114q280 0 448.5 -173.5t168.5 -447.5q0 -171 -55.5 -324t-153 -266.5t-240 -180t-307.5 -66.5zM737 150q169 0 300 91.5t199.5 244.5t68.5 339q0 204 -120.5 331.5t-324.5 127.5q-169 0 -300 -92
t-199 -245t-68 -339q0 -204 120 -331t324 -127z" />
    <glyph glyph-name="P" unicode="P" horiz-adv-x="1216" 
d="M45 0l254 1434h506q209 0 324.5 -113t115.5 -289q0 -227 -149 -354t-391 -127h-383l-99 -551h-178zM791 1270h-345l-96 -555h350q165 0 264 81.5t99 237.5q0 113 -73 174.5t-199 61.5z" />
    <glyph glyph-name="Q" unicode="Q" horiz-adv-x="1540" 
d="M1253 211q22 -27 45 -37t62 -10h117l-29 -164h-125q-77 0 -120.5 24.5t-78.5 77.5q-174 -114 -395 -114q-280 0 -448 173t-168 447q0 229 93.5 419.5t267.5 304.5t394 114q280 0 448.5 -173.5t168.5 -447.5q0 -180 -60.5 -339t-171.5 -275zM293 608q0 -204 120 -331
t324 -127q164 0 297 90l-51 75q-25 38 -49.5 53t-61.5 15h-127l29 164h144q67 0 105.5 -25t74.5 -80l59 -88q148 194 148 471q0 204 -120.5 331.5t-324.5 127.5q-169 0 -300 -92t-199 -245t-68 -339z" />
    <glyph glyph-name="R" unicode="R" horiz-adv-x="1251" 
d="M1245 1032q0 -185 -101 -305t-274 -158l205 -569h-196l-197 551h-360l-99 -551h-178l254 1434h506q209 0 324.5 -113t115.5 -289zM350 715h350q165 0 264 81.5t99 237.5q0 113 -73 174.5t-199 61.5h-345z" />
    <glyph glyph-name="S" unicode="S" horiz-adv-x="1243" 
d="M602 -12q-252 0 -389 128t-137 353h174q3 -106 51.5 -179.5t124 -106.5t172.5 -33q166 0 264.5 66.5t98.5 195.5q0 39 -16 71.5t-43 56t-70 44t-88.5 34.5t-106.5 29q-75 18 -135.5 38.5t-118.5 52.5t-96.5 70.5t-62 93.5t-23.5 120q0 104 40.5 186t112.5 133.5t168.5 78
t212.5 26.5q225 0 353 -117.5t131 -306.5h-175q-6 119 -93 190.5t-228 71.5q-159 0 -251.5 -64t-92.5 -188q0 -47 23 -83.5t69 -63t99 -45t130 -37.5q75 -18 135 -38.5t119 -52.5t98.5 -70.5t64 -93.5t24.5 -120q0 -210 -147.5 -325t-391.5 -115z" />
    <glyph glyph-name="T" unicode="T" horiz-adv-x="1191" 
d="M172 1270l31 164h1108l-31 -164h-465l-223 -1270h-178l223 1270h-465z" />
    <glyph glyph-name="U" unicode="U" horiz-adv-x="1357" 
d="M147 618l146 816h178l-149 -838q-13 -76 -13 -129q0 -156 82 -235.5t236 -79.5q187 0 290 113.5t144 342.5l147 826h178l-147 -828q-55 -305 -200.5 -461.5t-415.5 -156.5q-235 0 -363.5 119.5t-128.5 345.5q0 71 16 165z" />
    <glyph glyph-name="V" unicode="V" horiz-adv-x="1286" 
d="M580 211l653 1223h194l-768 -1434h-217l-264 1434h180z" />
    <glyph glyph-name="W" unicode="W" horiz-adv-x="1966" 
d="M352 0l-159 1434h184l115 -1205l563 1205h180l121 -1205l547 1205h190l-666 -1434h-217l-123 1137l-522 -1137h-213z" />
    <glyph glyph-name="X" unicode="X" horiz-adv-x="1245" 
d="M557 735l-332 699h197l264 -555l469 555h211l-590 -705l350 -729h-200l-281 586l-502 -586h-209z" />
    <glyph glyph-name="Y" unicode="Y" horiz-adv-x="1292" 
d="M672 707l555 727h207l-701 -904l-100 -530h-170l96 530l-381 904h187z" />
    <glyph glyph-name="Z" unicode="Z" horiz-adv-x="1214" 
d="M211 1270l31 164h1054l-20 -129l-1045 -1141h869l-29 -164h-1110l21 129l1044 1141h-815z" />
    <glyph glyph-name="bracketleft" unicode="[" horiz-adv-x="620" 
d="M-18 -266l311 1761h450l-26 -147h-293l-260 -1467h293l-25 -147h-450z" />
    <glyph glyph-name="backslash" unicode="\" horiz-adv-x="899" 
d="M328 1495l536 -1761h-157l-537 1761h158z" />
    <glyph glyph-name="bracketright" unicode="]" horiz-adv-x="620" 
d="M672 1495l-312 -1761h-450l27 147h292l260 1467h-292l24 147h451z" />
    <glyph glyph-name="asciicircum" unicode="^" horiz-adv-x="1052" 
d="M285 795h-154l483 639h136l260 -639h-150l-201 491z" />
    <glyph glyph-name="underscore" unicode="_" horiz-adv-x="1030" 
d="M784 -180h-788l29 168h788z" />
    <glyph glyph-name="grave" unicode="`" horiz-adv-x="819" 
d="M457 1155l-189 279h191l125 -279h-127z" />
    <glyph glyph-name="a" unicode="a" horiz-adv-x="1099" 
d="M963 154h55l-27 -154h-86q-78 0 -121.5 31.5t-48.5 81.5q-152 -125 -348 -125q-162 0 -260 74t-98 208q0 90 34.5 157.5t98.5 109t148.5 61.5t189.5 20h311l10 56q6 48 6 67q0 78 -61 122t-166 44q-121 0 -189.5 -45.5t-99.5 -130.5h-172q94 326 479 326q169 0 274 -79.5
t105 -225.5q0 -43 -10 -105l-76 -405q-6 -30 -6 -43q0 -45 58 -45zM403 131q156 0 253.5 82.5t121.5 218.5l8 45h-317q-125 0 -196.5 -48t-71.5 -144q0 -75 54.5 -114.5t147.5 -39.5z" />
    <glyph glyph-name="b" unicode="b" horiz-adv-x="1204" 
d="M696 1057q193 0 313.5 -127t120.5 -322q0 -176 -73.5 -318.5t-201.5 -222t-286 -79.5q-132 0 -219 46.5t-127 121.5l-55 -156h-148l254 1434h168l-92 -527q139 150 346 150zM555 137q92 0 170 39.5t128 103t77.5 141t27.5 157.5q0 158 -77.5 243.5t-210.5 85.5
q-92 0 -169.5 -39t-127.5 -102.5t-77.5 -141.5t-27.5 -157q0 -158 77.5 -244t209.5 -86z" />
    <glyph glyph-name="c" unicode="c" horiz-adv-x="1107" 
d="M848 360h170q-41 -183 -174 -277.5t-316 -94.5q-200 0 -326 129t-126 325q0 271 155.5 443t415.5 172q189 0 299 -101t115 -268h-164q-10 103 -82.5 161t-181.5 58q-122 0 -211.5 -63.5t-132.5 -165t-43 -225.5q0 -142 82.5 -229t216.5 -87q108 0 188 57.5t115 165.5z
" />
    <glyph glyph-name="d" unicode="d" horiz-adv-x="1206" 
d="M989 874l96 560h168l-254 -1434h-145v137q-131 -149 -346 -149q-193 0 -313.5 126.5t-120.5 321.5q0 176 73.5 318.5t201.5 222.5t286 80q138 0 227 -50.5t127 -132.5zM535 137q92 0 169.5 39.5t127 103t77 141.5t27.5 157q0 158 -77.5 243.5t-209.5 85.5q-92 0 -170 -39
t-128 -102.5t-77.5 -141.5t-27.5 -157q0 -158 78 -244t211 -86z" />
    <glyph glyph-name="e" unicode="e" horiz-adv-x="1140" 
d="M651 1057q193 0 306.5 -111.5t113.5 -296.5q0 -95 -16 -166h-807q-2 -14 -2 -39q0 -62 17.5 -116t52.5 -97.5t94 -68.5t135 -25q82 0 142.5 27.5t97 72t67.5 113.5h170q-52 -175 -178 -268.5t-305 -93.5q-216 0 -339.5 124.5t-123.5 327.5q0 166 67 305t200 225.5
t308 86.5zM279 629h610q2 14 2 37q0 115 -69.5 179t-190.5 64q-129 0 -224 -77.5t-128 -202.5z" />
    <glyph glyph-name="f" unicode="f" horiz-adv-x="657" 
d="M70 891l26 153h189l22 123q24 140 97 203.5t217 63.5h198l-28 -154h-177q-120 0 -141 -121l-20 -115h295l-27 -153h-295l-158 -891h-168l158 891h-188z" />
    <glyph glyph-name="g" unicode="g" horiz-adv-x="1204" 
d="M983 887l55 157h146l-176 -999q-41 -234 -173 -350.5t-389 -116.5q-213 0 -328.5 88t-115.5 260h168q4 -96 80.5 -147t202.5 -51q169 0 266 82.5t125 252.5l12 82q-139 -157 -348 -157q-193 0 -313.5 126.5t-120.5 321.5q0 176 73.5 318.5t201.5 222.5t286 80
q133 0 220.5 -47.5t127.5 -122.5zM535 137q92 0 169.5 39.5t127 103t77 141.5t27.5 157q0 158 -77.5 243.5t-209.5 85.5q-92 0 -170 -39t-128 -102.5t-77.5 -141.5t-27.5 -157q0 -158 78 -244t211 -86z" />
    <glyph glyph-name="h" unicode="h" horiz-adv-x="1136" 
d="M700 1057q160 0 259.5 -88t99.5 -264q0 -59 -12 -130l-103 -575h-168l101 567q12 70 12 123q0 100 -59 156.5t-168 56.5q-148 0 -248 -104t-133 -283l-93 -516h-168l254 1434h168l-94 -547q137 170 352 170z" />
    <glyph glyph-name="i" unicode="i" horiz-adv-x="393" 
d="M332 1221q-44 0 -73.5 27.5t-29.5 70.5q0 51 35 85t82 34q44 0 72 -28t28 -71q0 -51 -33.5 -84.5t-80.5 -33.5zM20 0l185 1044h168l-185 -1044h-168z" />
    <glyph glyph-name="j" unicode="j" horiz-adv-x="405" 
d="M342 1221q-44 0 -73 27.5t-29 70.5q0 51 34.5 85t81.5 34q44 0 72.5 -28t28.5 -71q0 -51 -34 -84.5t-81 -33.5zM-285 -410l27 154h125q123 0 141 121l209 1179h168l-209 -1187q-25 -140 -97 -203.5t-216 -63.5h-148z" />
    <glyph glyph-name="k" unicode="k" horiz-adv-x="1042" 
d="M20 0l254 1434h168l-168 -930l607 540h225l-485 -428l319 -616h-186l-260 502l-256 -226l-50 -276h-168z" />
    <glyph glyph-name="l" unicode="l" horiz-adv-x="395" 
d="M20 0l254 1434h168l-254 -1434h-168z" />
    <glyph glyph-name="m" unicode="m" horiz-adv-x="1761" 
d="M1343 1057q70 0 130.5 -20t109 -59t76 -105t27.5 -152q0 -49 -13 -125l-104 -596h-168l106 598q9 55 9 98q0 101 -52 154t-147 53q-132 0 -222 -94t-118 -256l-98 -553h-168l106 598q8 47 8 96q0 103 -52.5 156t-149.5 53q-130 0 -220 -98t-118 -260l-97 -545h-168
l185 1044h145l-2 -137q61 68 133 109t176 41q116 0 194.5 -53t104.5 -154q137 207 387 207z" />
    <glyph glyph-name="n" unicode="n" horiz-adv-x="1136" 
d="M700 1057q160 0 259.5 -88t99.5 -264q0 -59 -12 -130l-103 -575h-168l101 567q12 70 12 123q0 100 -59 156.5t-168 56.5q-149 0 -248.5 -103.5t-132.5 -283.5l-93 -516h-168l185 1044h145l-2 -135q140 148 352 148z" />
    <glyph glyph-name="o" unicode="o" horiz-adv-x="1187" 
d="M528 -12q-202 0 -328 126.5t-126 323.5q0 175 76.5 317t210.5 222t298 80q202 0 328.5 -127t126.5 -324q0 -175 -77 -317t-211 -221.5t-298 -79.5zM543 137q179 0 290 134.5t111 326.5q0 137 -84 223t-215 86q-179 0 -290 -134.5t-111 -326.5q0 -137 84 -223t215 -86z
" />
    <glyph glyph-name="p" unicode="p" horiz-adv-x="1206" 
d="M696 1057q193 0 313.5 -129.5t120.5 -325.5q0 -176 -73.5 -317t-201.5 -219t-286 -78q-138 0 -227 50t-127 130l-98 -578h-168l256 1454h145v-141q140 154 346 154zM555 137q92 0 170 39.5t128 103t77.5 141t27.5 157.5q0 158 -77.5 243.5t-210.5 85.5q-92 0 -169.5 -39
t-127.5 -102.5t-77.5 -141.5t-27.5 -157q0 -158 77.5 -244t209.5 -86z" />
    <glyph glyph-name="q" unicode="q" horiz-adv-x="1204" 
d="M983 887l55 157h146l-256 -1454h-168l96 553q-141 -155 -348 -155q-193 0 -313.5 126.5t-120.5 321.5q0 176 73.5 318.5t201.5 222.5t286 80q133 0 220.5 -47.5t127.5 -122.5zM535 137q92 0 169.5 39.5t127 103t77 141.5t27.5 157q0 158 -77.5 243.5t-209.5 85.5
q-92 0 -170 -39t-128 -102.5t-77.5 -141.5t-27.5 -157q0 -158 78 -244t211 -86z" />
    <glyph glyph-name="r" unicode="r" horiz-adv-x="684" 
d="M682 1044h53l-28 -163h-78q-78 0 -141.5 -31.5t-104 -85t-65 -112.5t-37.5 -126l-93 -526h-168l185 1044h145l-4 -147q118 147 336 147z" />
    <glyph glyph-name="s" unicode="s" horiz-adv-x="991" 
d="M541 1057q180 0 287.5 -85t107.5 -247h-166q-3 86 -65.5 137t-165.5 51q-116 0 -183 -42t-67 -109q0 -64 56.5 -97t164.5 -53q93 -16 157 -37t116 -53.5t77 -81t25 -114.5q0 -83 -34 -148.5t-94 -106t-137.5 -62t-168.5 -21.5q-184 0 -302 97t-118 259h166
q8 -102 74.5 -157.5t181.5 -55.5q124 0 194 46t70 128q0 61 -58 96t-167 54q-91 16 -154.5 36t-115 53t-76.5 83t-25 118q0 148 117.5 230t302.5 82z" />
    <glyph glyph-name="t" unicode="t" horiz-adv-x="677" 
d="M156 307l102 584h-188l26 153h189l51 293h168l-51 -293h264l-27 -153h-264l-111 -623q-4 -32 -4 -43q0 -39 21.5 -55t73.5 -16h176l-27 -154h-176q-124 0 -181 48.5t-57 146.5q0 16 15 112z" />
    <glyph glyph-name="u" unicode="u" horiz-adv-x="1114" 
d="M836 528l90 516h168l-185 -1044h-143v131q-139 -143 -342 -143q-156 0 -251 82.5t-95 248.5q0 70 14 152l101 573h167l-100 -575q-12 -74 -12 -127q0 -98 52.5 -149.5t156.5 -51.5q145 0 246.5 104.5t132.5 282.5z" />
    <glyph glyph-name="v" unicode="v" horiz-adv-x="1005" 
d="M438 184l465 860h184l-575 -1044h-203l-207 1044h170z" />
    <glyph glyph-name="w" unicode="w" horiz-adv-x="1601" 
d="M262 0l-153 1044h172l108 -849l426 849h156l108 -849l420 849h178l-532 -1044h-184l-115 776l-400 -776h-184z" />
    <glyph glyph-name="x" unicode="x" horiz-adv-x="1015" 
d="M887 1044h198l-469 -518l297 -526h-188l-233 414l-375 -414h-199l498 547l-281 497h189l217 -385z" />
    <glyph glyph-name="y" unicode="y" horiz-adv-x="1009" 
d="M319 -8l-217 1052h170l166 -849l471 849h183l-699 -1226q-41 -72 -65.5 -108t-58 -67.5t-71 -42t-92.5 -10.5h-206l26 154h144q70 0 106 26t78 103z" />
    <glyph glyph-name="z" unicode="z" horiz-adv-x="960" 
d="M137 891l27 153h819l-20 -126l-758 -764h647l-27 -154h-872l20 127l756 764h-592z" />
    <glyph glyph-name="braceleft" unicode="{" horiz-adv-x="675" 
d="M707 1495h92l-29 -147h-72q-128 0 -187 -63.5t-54 -192.5q1 -25 6.5 -88t5.5 -103q0 -118 -54.5 -196t-146.5 -99q121 -42 121 -180q0 -38 -10.5 -80t-21 -66t-31.5 -69q-3 -6 -12.5 -24.5t-12.5 -25t-10.5 -23t-11 -25t-8.5 -23.5t-7 -26t-4 -25t-2 -27q0 -63 46 -97
t138 -34h60l-27 -147h-51q-156 0 -242 65t-86 185q0 22 3 43.5t6.5 37.5t11.5 38t13 34t16 37t16 37q3 7 16.5 35.5t18 39t12.5 33.5t11 42.5t3 41.5q0 65 -45 100t-131 38l25 147q126 4 183.5 61.5t55.5 168.5q0 31 -4.5 105.5t-5.5 109.5q-4 187 97 274.5t309 87.5z" />
    <glyph glyph-name="bar" unicode="|" horiz-adv-x="446" 
d="M0 -266l309 1761h168l-309 -1761h-168z" />
    <glyph glyph-name="braceright" unicode="}" horiz-adv-x="675" 
d="M2 -266h-92l29 147h71q128 0 187.5 63.5t54.5 192.5q-1 25 -6.5 88t-5.5 103q0 118 54 196t146 99q-121 42 -121 180q0 38 11 80.5t21 65t32 69.5q3 6 12.5 24.5t12.5 25t10.5 23t11 25t8.5 23.5t7 26t4 25t2 27q0 63 -46.5 97t-138.5 34h-59l26 147h52q156 0 241.5 -65
t85.5 -185q0 -22 -3 -43.5t-6 -37t-11.5 -38.5t-12.5 -33.5t-16 -37.5t-16 -37q-4 -8 -17 -35.5t-18 -39.5t-13 -34t-11 -42t-3 -42q0 -64 45.5 -99t131.5 -38l-25 -147q-127 -4 -184.5 -61.5t-55.5 -168.5q0 -31 5 -105.5t6 -109.5q4 -187 -97 -274.5t-309 -87.5z" />
    <glyph glyph-name="asciitilde" unicode="~" horiz-adv-x="1073" 
d="M248 424h-139q24 144 97 218.5t179 74.5q53 0 94 -14.5t66.5 -35.5t47.5 -42t47.5 -35.5t55.5 -14.5q114 0 148 144h139q-24 -143 -96.5 -217t-181.5 -74q-53 0 -94 14.5t-66.5 35t-47.5 40.5t-48 34.5t-56 14.5q-112 0 -145 -143z" />
    <glyph glyph-name="uni00A0" unicode="&#xa0;" horiz-adv-x="536" 
 />
    <glyph glyph-name="exclamdown" unicode="&#xa1;" horiz-adv-x="509" 
d="M406 1446q49 0 78.5 -27t29.5 -73q0 -59 -35.5 -94t-89.5 -35q-49 0 -78.5 28t-29.5 74q0 57 35.5 92t89.5 35zM274 1006h129l-151 -1006h-180z" />
    <glyph glyph-name="cent" unicode="&#xa2;" horiz-adv-x="1110" 
d="M580 326q108 0 188 57.5t115 165.5h170q-38 -172 -158 -266t-287 -105l-30 -178h-156l33 186q-156 35 -250 157t-94 288q0 171 63.5 306t184.5 216t282 90l35 191h155l-34 -199q138 -29 216 -124t83 -234h-164q-10 103 -82.5 161t-181.5 58q-92 0 -166.5 -36.5
t-122 -99.5t-73 -145t-25.5 -174q0 -142 82.5 -228.5t216.5 -86.5z" />
    <glyph glyph-name="sterling" unicode="&#xa3;" horiz-adv-x="1257" 
d="M98 600l25 143h166q-1 23 -4.5 80.5t-3.5 89.5q0 236 141 384.5t373 148.5q221 0 341.5 -121t120.5 -330h-176q0 132 -75 211.5t-211 79.5q-167 0 -254.5 -104.5t-87.5 -272.5q0 -29 4.5 -85.5t5.5 -80.5h438l-24 -143h-422q-2 -115 -58 -229.5t-157 -206.5h862l-29 -164
h-1055l25 160q108 99 171.5 212t72.5 228h-189z" />
    <glyph glyph-name="currency" unicode="&#xa4;" horiz-adv-x="1337" 
d="M199 653q0 84 35 173t94 153l-129 143l125 119l129 -145q140 98 303 98q77 0 148.5 -25t117.5 -65l164 135l108 -119l-164 -139q66 -96 66 -227q0 -85 -34.5 -173.5t-92.5 -154.5l129 -143l-125 -117l-131 143q-137 -96 -303 -96q-78 0 -149.5 24.5t-116.5 65.5
l-164 -135l-109 117l164 141q-65 92 -65 227zM1055 754q0 132 -87 214.5t-216 82.5q-168 1 -290 -119t-122 -279q0 -132 87.5 -214.5t215.5 -84.5q111 0 206.5 55.5t150.5 148t55 196.5z" />
    <glyph glyph-name="yen" unicode="&#xa5;" horiz-adv-x="1333" 
d="M1249 1434h205l-620 -801h327l-24 -139h-389l-31 -156h391l-23 -139h-395l-37 -199h-170l37 199h-391l23 139h393l28 156h-393l25 139h332l-338 801h188l307 -734z" />
    <glyph glyph-name="brokenbar" unicode="&#xa6;" horiz-adv-x="446" 
d="M172 721l137 774h168l-137 -774h-168zM0 -266l135 770h168l-135 -770h-168z" />
    <glyph glyph-name="section" unicode="&#xa7;" horiz-adv-x="1210" 
d="M715 944q53 -15 88.5 -26.5t79.5 -28.5t72 -33t58 -39t46.5 -48.5t27.5 -59t11 -72.5q0 -110 -80 -187.5t-223 -115.5q129 -84 129 -234q0 -142 -116.5 -229.5t-311.5 -87.5q-160 0 -261.5 81.5t-101.5 217.5h162q9 -79 63.5 -120.5t147.5 -41.5q118 0 185 46t67 128
q0 34 -13.5 62t-32 46t-53 35t-61 26t-70.5 22q-53 15 -88.5 26.5t-79.5 28.5t-72 33t-58 39t-46.5 48.5t-27.5 59t-11 72.5q0 110 80.5 187.5t223.5 115.5q-130 85 -130 233q0 142 117 230t312 88q160 0 261 -81.5t101 -217.5h-162q-9 79 -63.5 120.5t-147.5 41.5
q-118 0 -185 -46t-67 -128q0 -25 7 -46.5t17 -37t29.5 -30t35 -24t44.5 -20.5t46.5 -17t50.5 -16zM690 385q106 28 170 85t64 142q0 28 -8 51t-27 41.5t-37.5 31.5t-54 27t-61.5 22.5t-74 23.5q-33 9 -109 35q-106 -28 -170 -85.5t-64 -142.5q0 -34 13.5 -61t33.5 -45.5
t57 -35.5t71 -28t88 -26q28 -8 108 -35z" />
    <glyph glyph-name="dieresis" unicode="&#xa8;" horiz-adv-x="819" 
d="M367 1405q44 0 72 -26t28 -66q0 -50 -33 -82.5t-80 -32.5q-44 0 -72 26.5t-28 67.5q0 49 32.5 81t80.5 32zM735 1405q44 0 72.5 -26t28.5 -66q0 -50 -33 -82.5t-80 -32.5q-44 0 -72 26.5t-28 67.5q0 49 32 81t80 32z" />
    <glyph glyph-name="copyright" unicode="&#xa9;" horiz-adv-x="1644" 
d="M946 1446q188 0 338 -80.5t234 -223t84 -319.5q0 -176 -63 -331t-172.5 -265.5t-265 -174.5t-333.5 -64q-186 0 -336 80.5t-234.5 222.5t-84.5 319q0 174 63 329t172.5 266t265 176t332.5 65zM934 1341q-200 0 -361.5 -98t-250.5 -263.5t-89 -363.5q0 -227 153 -375.5
t388 -148.5q148 0 280.5 57t226 154t147.5 230.5t53 281.5q-3 228 -158 377t-389 149zM1073 600h137q-44 -144 -150 -223.5t-253 -79.5q-164 0 -259 98t-95 248q0 217 132.5 358.5t332.5 141.5q149 0 240.5 -84t90.5 -221h-135q-6 83 -60.5 131.5t-140.5 48.5
q-146 0 -234.5 -107.5t-88.5 -269.5q0 -97 58.5 -159t162.5 -62q91 0 159.5 50t102.5 130z" />
    <glyph glyph-name="ordfeminine" unicode="&#xaa;" horiz-adv-x="874" 
d="M418 778q-103 0 -164 42.5t-61 119.5q0 110 87 168.5t226 58.5h180q10 56 10 78q0 96 -127 96q-64 0 -113 -32t-65 -78h-131q27 103 109.5 159t199.5 56q120 0 186 -51t66 -142q0 -18 -8 -65l-43 -250q-5 -26 2 -36.5t39 -10.5h33l-19 -103h-61q-48 0 -76 22t-31 58
q-2 10 2 33q-84 -123 -241 -123zM430 877q92 0 161 56t79 146h-172q-76 0 -123 -29t-47 -89q0 -40 27.5 -62t74.5 -22zM774 496h-670l21 120h670z" />
    <glyph glyph-name="guillemotleft" unicode="&#xab;" horiz-adv-x="1062" 
d="M479 1044h174l-415 -522l225 -522h-164l-236 522zM911 1044h174l-415 -522l225 -522h-164l-235 522z" />
    <glyph glyph-name="logicalnot" unicode="&#xac;" horiz-adv-x="1073" 
d="M127 563l25 144h749l-84 -482h-149l59 338h-600z" />
    <glyph glyph-name="uni00AD" unicode="&#xad;" horiz-adv-x="894" 
d="M784 512h-682l25 139h682z" />
    <glyph glyph-name="registered" unicode="&#xae;" horiz-adv-x="1067" 
d="M668 1446q180 0 290.5 -102.5t110.5 -270.5q0 -128 -66 -236t-178.5 -170.5t-244.5 -62.5q-180 0 -291 102.5t-111 270.5q0 128 66 236t179 170.5t245 62.5zM662 1364q-151 0 -266 -111t-115 -270q0 -140 87.5 -218.5t217.5 -78.5q151 0 266 111t115 270
q0 140 -87.5 218.5t-217.5 78.5zM426 791l84 466h172q72 0 117 -39t45 -98q0 -116 -131 -147l71 -182h-100l-63 165h-74l-31 -165h-90zM676 1182h-90l-27 -150h78q46 0 79.5 21.5t33.5 62.5q0 66 -74 66z" />
    <glyph glyph-name="macron" unicode="&#xaf;" horiz-adv-x="819" 
d="M817 1243h-563l22 127h564z" />
    <glyph glyph-name="degree" unicode="&#xb0;" horiz-adv-x="858" 
d="M573 1446q134 0 219 -81t85 -214q0 -103 -56 -188t-142.5 -131t-180.5 -46q-134 0 -218.5 81t-84.5 214q0 103 56 188.5t142 131t180 45.5zM510 920q88 0 155.5 66t67.5 159q0 75 -46.5 121.5t-123.5 46.5q-91 0 -158 -66t-67 -160q0 -74 46.5 -120.5t125.5 -46.5z" />
    <glyph glyph-name="plusminus" unicode="&#xb1;" horiz-adv-x="1077" 
d="M496 694l63 359h154l-64 -359h342l-24 -141h-342l-64 -360h-153l63 360h-340l25 141h340zM862 0h-835l24 141h836z" />
    <glyph glyph-name="uni00B2" unicode="&#xb2;" horiz-adv-x="645" 
d="M506 1651q114 0 178 -54.5t64 -150.5q0 -46 -14 -85t-43 -72.5t-57.5 -57.5t-72.5 -55l-250 -170h369l-21 -113h-544l16 106l344 238q82 57 117 100t35 99q0 53 -34 81.5t-91 28.5q-71 0 -121 -46.5t-64 -121.5h-114q19 128 100.5 200.5t202.5 72.5z" />
    <glyph glyph-name="uni00B3" unicode="&#xb3;" horiz-adv-x="665" 
d="M336 1421h-115q20 112 100 173t193 61q111 0 178.5 -55t67.5 -138q0 -73 -42.5 -118.5t-109.5 -61.5q50 -11 80.5 -50t30.5 -97q0 -108 -80.5 -179t-228.5 -71q-123 0 -191.5 64t-68.5 184h114q0 -70 42 -107t116 -37q79 0 127.5 39.5t48.5 104.5q0 104 -149 104h-52
l17 86h57q77 0 122.5 34t45.5 97q0 43 -37 69.5t-92 26.5q-71 0 -117 -36.5t-57 -92.5z" />
    <glyph glyph-name="acute" unicode="&#xb4;" horiz-adv-x="819" 
d="M598 1157h-141l200 277h203z" />
    <glyph glyph-name="uni00B5" unicode="&#xb5;" horiz-adv-x="1148" 
d="M1108 1044l-145 -817q-7 -44 5 -58.5t52 -14.5h47l-27 -154h-92q-93 0 -131.5 37t-30.5 108q-56 -75 -140 -116t-185 -41q-184 0 -254 112l-90 -510h-168l256 1454h168l-99 -555q-14 -89 -14 -137q0 -107 52 -159t169 -52q137 0 237 107.5t132 290.5l90 505h168z" />
    <glyph glyph-name="paragraph" unicode="&#xb6;" horiz-adv-x="1374" 
d="M836 0h-160l84 473h-139q-246 0 -373 107t-127 297q0 167 78.5 295t213 195t302.5 67h375zM983 0l254 1434h160l-254 -1434h-160z" />
    <glyph glyph-name="periodcentered" unicode="&#xb7;" horiz-adv-x="419" 
d="M233 696q46 0 74.5 -27t28.5 -71q0 -56 -39.5 -93.5t-93.5 -35.5q-46 2 -73.5 29t-27.5 71q0 55 39 91t92 36z" />
    <glyph glyph-name="cedilla" unicode="&#xb8;" horiz-adv-x="819" 
d="M199 -184l86 221h100l-49 -123h16q66 0 110 -37.5t44 -97.5q0 -83 -61.5 -136t-151.5 -53h-170l16 103h133q105 0 105 67q0 56 -70 56h-108z" />
    <glyph glyph-name="uni00B9" unicode="&#xb9;" horiz-adv-x="423" 
d="M508 1640l-131 -745h-115l86 496q-17 -17 -49 -17h-127l21 113h106q39 0 56.5 15t23.5 48l16 90h113z" />
    <glyph glyph-name="ordmasculine" unicode="&#xba;" horiz-adv-x="858" 
d="M483 778q-129 0 -203.5 73.5t-74.5 197.5q0 168 106 283.5t267 115.5q129 0 203.5 -75t74.5 -199q0 -166 -106.5 -281t-266.5 -115zM338 1057q0 -75 40 -119.5t109 -44.5q103 0 170.5 81.5t67.5 190.5q0 77 -42 122.5t-112 45.5q-102 0 -167.5 -83t-65.5 -193zM98 496
l21 120h649l-20 -120h-650z" />
    <glyph glyph-name="guillemotright" unicode="&#xbb;" horiz-adv-x="1062" 
d="M152 -2h-175l416 522l-225 522h164l235 -522zM584 -2h-174l415 522l-225 522h164l235 -522z" />
    <glyph glyph-name="onequarter" unicode="&#xbc;" horiz-adv-x="1458" 
d="M471 1436l-131 -746h-115l86 496q-17 -17 -49 -17h-127l21 113h106q39 0 56.5 15.5t23.5 48.5l16 90h113zM172 0h-139l1161 1434h141zM766 293l430 452h145l-79 -456h120l-18 -105h-121l-33 -184h-114l32 184h-378zM1147 289l57 325l-303 -325h246z" />
    <glyph glyph-name="onehalf" unicode="&#xbd;" horiz-adv-x="1486" 
d="M471 1436l-131 -746h-115l86 496q-17 -17 -49 -17h-127l21 113h106q39 0 56.5 15.5t23.5 48.5l16 90h113zM172 0h-139l1161 1434h141zM1190 758q114 0 178 -54.5t64 -150.5q0 -46 -14 -85t-43 -72.5t-57.5 -57.5t-72.5 -55l-250 -170h369l-21 -113h-544l16 106l344 238
q82 57 117 100t35 99q0 53 -34 81.5t-91 28.5q-71 0 -121 -46.5t-64 -121.5h-114q19 128 100.5 200.5t202.5 72.5z" />
    <glyph glyph-name="threequarters" unicode="&#xbe;" horiz-adv-x="1665" 
d="M301 1217h-115q20 112 100 172.5t193 60.5q111 0 178.5 -55t67.5 -138q0 -73 -42.5 -118.5t-109.5 -61.5q50 -11 80.5 -50t30.5 -97q0 -108 -80.5 -179t-228.5 -71q-123 0 -191.5 64t-68.5 184h114q0 -70 42 -107t116 -37q79 0 127.5 39.5t48.5 104.5q0 104 -149 104h-52
l17 86h57q77 0 122.5 34t45.5 97q0 43 -37 70t-92 27q-71 0 -117 -36.5t-57 -92.5zM379 0h-139l1161 1434h141zM973 293l430 452h145l-80 -456h121l-18 -105h-121l-33 -184h-114l32 184h-379zM1354 289l57 325l-303 -325h246z" />
    <glyph glyph-name="questiondown" unicode="&#xbf;" horiz-adv-x="1052" 
d="M694 1446q50 0 79.5 -27t29.5 -73q0 -59 -35.5 -94t-89.5 -35q-49 0 -79 28t-30 74q0 57 35.5 92t89.5 35zM551 997h158l-13 -77q-19 -113 -84.5 -182.5t-181.5 -129.5q-100 -51 -154.5 -112.5t-54.5 -157.5q0 -83 62 -139t168 -56q162 0 250 84t100 230h170
q-23 -215 -155.5 -342t-366.5 -127q-188 0 -296 97t-108 241q0 72 18.5 130.5t55 104t80 79t104.5 67.5q113 64 169.5 115t70.5 128z" />
    <glyph glyph-name="Agrave" unicode="&#xc0;" horiz-adv-x="1329" 
d="M795 1556l-189 279h191l125 -279h-127zM1217 0h-179l-75 387h-629l-211 -387h-195l795 1434h209zM799 1237l-377 -688h510z" />
    <glyph glyph-name="Aacute" unicode="&#xc1;" horiz-adv-x="1329" 
d="M936 1559h-141l200 276h203zM1217 0h-179l-75 387h-629l-211 -387h-195l795 1434h209zM799 1237l-377 -688h510z" />
    <glyph glyph-name="Acircumflex" unicode="&#xc2;" horiz-adv-x="1329" 
d="M1040 1556l-141 168l-213 -168h-168l307 279h160l209 -279h-154zM1217 0h-179l-75 387h-629l-211 -387h-195l795 1434h209zM799 1237l-377 -688h510z" />
    <glyph glyph-name="Atilde" unicode="&#xc3;" horiz-adv-x="1329" 
d="M776 1833q39 0 68 -12t46.5 -29.5t31.5 -34.5t31 -29t38 -12q73 0 90 111h115q-20 -113 -73 -171.5t-130 -58.5q-48 0 -83 18.5t-50.5 40t-38 40t-49.5 18.5q-68 0 -90 -108h-115q20 111 75 169t134 58zM1217 0h-179l-75 387h-629l-211 -387h-195l795 1434h209zM799 1237
l-377 -688h510z" />
    <glyph glyph-name="Adieresis" unicode="&#xc4;" horiz-adv-x="1329" 
d="M702 1806q44 0 72.5 -26t28.5 -66q0 -50 -33 -82.5t-80 -32.5q-44 0 -72 27t-28 68q0 49 32 80.5t80 31.5zM1071 1806q44 0 72 -26t28 -66q0 -50 -32.5 -82.5t-79.5 -32.5q-44 0 -72.5 27t-28.5 68q0 49 32.5 80.5t80.5 31.5zM1217 0h-179l-75 387h-629l-211 -387h-195
l795 1434h209zM799 1237l-377 -688h510z" />
    <glyph glyph-name="Aring" unicode="&#xc5;" horiz-adv-x="1329" 
d="M942 1386l275 -1386h-179l-75 387h-629l-211 -387h-195l779 1405q-47 32 -75 82t-28 108q0 94 69.5 161t168.5 67t168 -67t69 -161q0 -68 -37.5 -124.5t-99.5 -84.5zM842 1726q-54 0 -91.5 -37t-37.5 -94q0 -58 37 -95.5t92 -37.5t92 37.5t37 95.5q0 57 -37.5 94
t-91.5 37zM799 1237l-377 -688h510z" />
    <glyph glyph-name="AE" unicode="&#xc6;" horiz-adv-x="1976" 
d="M2046 1434l-31 -164h-725l-80 -459h602l-28 -164h-602l-86 -483h751l-28 -164h-930l63 362h-542l-291 -362h-211l1120 1434h1018zM520 518h461l135 760z" />
    <glyph glyph-name="Ccedilla" unicode="&#xc7;" horiz-adv-x="1431" 
d="M717 152q165 0 275.5 80t178.5 239h179q-74 -229 -229.5 -352.5t-381.5 -130.5l-28 -74h16q66 0 110 -37.5t44 -97.5q0 -83 -61.5 -136t-151.5 -53h-170l16 103h133q105 0 105 67q0 56 -70 56h-109l68 176q-238 25 -383 193.5t-145 424.5q0 167 54 318.5t150.5 266.5
t240.5 183t314 68q242 0 390 -131t157 -352h-174q-22 150 -123 234.5t-264 84.5q-105 0 -196 -37t-157.5 -101t-114 -149t-71.5 -184t-24 -203q0 -204 117 -330t305 -126z" />
    <glyph glyph-name="Egrave" unicode="&#xc8;" horiz-adv-x="1132" 
d="M700 1556l-188 279h190l125 -279h-127zM45 0l254 1434h903l-31 -164h-725l-79 -459h602l-29 -164h-602l-86 -483h752l-29 -164h-930z" />
    <glyph glyph-name="Eacute" unicode="&#xc9;" horiz-adv-x="1132" 
d="M842 1559h-142l201 276h203zM45 0l254 1434h903l-31 -164h-725l-79 -459h602l-29 -164h-602l-86 -483h752l-29 -164h-930z" />
    <glyph glyph-name="Ecircumflex" unicode="&#xca;" horiz-adv-x="1132" 
d="M946 1556l-141 168l-213 -168h-168l307 279h160l209 -279h-154zM45 0l254 1434h903l-31 -164h-725l-79 -459h602l-29 -164h-602l-86 -483h752l-29 -164h-930z" />
    <glyph glyph-name="Edieresis" unicode="&#xcb;" horiz-adv-x="1132" 
d="M608 1806q44 0 72.5 -26t28.5 -66q0 -50 -33 -82.5t-80 -32.5q-44 0 -72 27t-28 68q0 49 32 80.5t80 31.5zM977 1806q44 0 72 -26t28 -66q0 -50 -32.5 -82.5t-79.5 -32.5q-44 0 -72.5 27t-28.5 68q0 49 32.5 80.5t80.5 31.5zM45 0l254 1434h903l-31 -164h-725l-79 -459
h602l-29 -164h-602l-86 -483h752l-29 -164h-930z" />
    <glyph glyph-name="Igrave" unicode="&#xcc;" horiz-adv-x="456" 
d="M346 1556l-188 279h190l125 -279h-127zM45 0l254 1434h178l-254 -1434h-178z" />
    <glyph glyph-name="Iacute" unicode="&#xcd;" horiz-adv-x="456" 
d="M487 1559h-141l201 276h203zM45 0l254 1434h178l-254 -1434h-178z" />
    <glyph glyph-name="Icircumflex" unicode="&#xce;" horiz-adv-x="456" 
d="M592 1556l-141 168l-213 -168h-168l307 279h160l208 -279h-153zM45 0l254 1434h178l-254 -1434h-178z" />
    <glyph glyph-name="Idieresis" unicode="&#xcf;" horiz-adv-x="456" 
d="M254 1806q44 0 72 -26t28 -66q0 -50 -32.5 -82.5t-79.5 -32.5q-44 0 -72.5 27t-28.5 68q0 49 32.5 80.5t80.5 31.5zM623 1806q44 0 72 -26t28 -66q0 -50 -33 -82.5t-80 -32.5q-44 0 -72 27t-28 68q0 49 32.5 80.5t80.5 31.5zM45 0l254 1434h178l-254 -1434h-178z" />
    <glyph glyph-name="Eth" unicode="&#xd0;" horiz-adv-x="1447" 
d="M352 1434h379q310 0 491 -168t181 -445q0 -176 -58 -327t-164.5 -260.5t-265 -171.5t-350.5 -62h-467l117 653h-178l26 152h179zM305 164h275q295 0 469 180t174 473q0 224 -132.5 338.5t-371.5 114.5h-219l-82 -465h291l-27 -152h-291z" />
    <glyph glyph-name="Ntilde" unicode="&#xd1;" horiz-adv-x="1386" 
d="M782 1833q39 0 68 -12t46.5 -29.5t31.5 -34.5t31 -29t38 -12q73 0 90 111h115q-20 -113 -73 -171.5t-130 -58.5q-48 0 -83 18.5t-50.5 40t-38 40t-49.5 18.5q-68 0 -90 -108h-115q20 111 75 169t134 58zM219 0h-174l254 1434h145l586 -1127l203 1127h174l-254 -1434h-162
l-575 1106z" />
    <glyph glyph-name="Ograve" unicode="&#xd2;" horiz-adv-x="1529" 
d="M862 1556l-188 279h190l125 -279h-127zM729 -12q-280 0 -448 173t-168 447q0 229 93.5 419.5t267.5 304.5t394 114q280 0 448.5 -173.5t168.5 -447.5q0 -171 -55.5 -324t-153 -266.5t-240 -180t-307.5 -66.5zM737 150q169 0 300 91.5t199.5 244.5t68.5 339
q0 204 -120.5 331.5t-324.5 127.5q-169 0 -300 -92t-199 -245t-68 -339q0 -204 120 -331t324 -127z" />
    <glyph glyph-name="Oacute" unicode="&#xd3;" horiz-adv-x="1529" 
d="M1004 1559h-142l201 276h203zM729 -12q-280 0 -448 173t-168 447q0 229 93.5 419.5t267.5 304.5t394 114q280 0 448.5 -173.5t168.5 -447.5q0 -171 -55.5 -324t-153 -266.5t-240 -180t-307.5 -66.5zM737 150q169 0 300 91.5t199.5 244.5t68.5 339q0 204 -120.5 331.5
t-324.5 127.5q-169 0 -300 -92t-199 -245t-68 -339q0 -204 120 -331t324 -127z" />
    <glyph glyph-name="Ocircumflex" unicode="&#xd4;" horiz-adv-x="1529" 
d="M1108 1556l-141 168l-213 -168h-168l307 279h160l209 -279h-154zM729 -12q-280 0 -448 173t-168 447q0 229 93.5 419.5t267.5 304.5t394 114q280 0 448.5 -173.5t168.5 -447.5q0 -171 -55.5 -324t-153 -266.5t-240 -180t-307.5 -66.5zM737 150q169 0 300 91.5
t199.5 244.5t68.5 339q0 204 -120.5 331.5t-324.5 127.5q-169 0 -300 -92t-199 -245t-68 -339q0 -204 120 -331t324 -127z" />
    <glyph glyph-name="Otilde" unicode="&#xd5;" horiz-adv-x="1529" 
d="M844 1833q39 0 68 -12t46.5 -29.5t31.5 -34.5t31 -29t38 -12q73 0 90 111h115q-20 -113 -73 -171.5t-130 -58.5q-48 0 -83 18.5t-50.5 40t-38 40t-49.5 18.5q-68 0 -90 -108h-115q20 111 75 169t134 58zM729 -12q-280 0 -448 173t-168 447q0 229 93.5 419.5t267.5 304.5
t394 114q280 0 448.5 -173.5t168.5 -447.5q0 -171 -55.5 -324t-153 -266.5t-240 -180t-307.5 -66.5zM737 150q169 0 300 91.5t199.5 244.5t68.5 339q0 204 -120.5 331.5t-324.5 127.5q-169 0 -300 -92t-199 -245t-68 -339q0 -204 120 -331t324 -127z" />
    <glyph glyph-name="Odieresis" unicode="&#xd6;" horiz-adv-x="1529" 
d="M770 1806q44 0 72 -26t28 -66q0 -50 -32.5 -82.5t-79.5 -32.5q-44 0 -72.5 27t-28.5 68q0 49 32.5 80.5t80.5 31.5zM1139 1806q44 0 72 -26t28 -66q0 -50 -33 -82.5t-80 -32.5q-44 0 -72 27t-28 68q0 49 32.5 80.5t80.5 31.5zM729 -12q-280 0 -448 173t-168 447
q0 229 93.5 419.5t267.5 304.5t394 114q280 0 448.5 -173.5t168.5 -447.5q0 -171 -55.5 -324t-153 -266.5t-240 -180t-307.5 -66.5zM737 150q169 0 300 91.5t199.5 244.5t68.5 339q0 204 -120.5 331.5t-324.5 127.5q-169 0 -300 -92t-199 -245t-68 -339q0 -204 120 -331
t324 -127z" />
    <glyph glyph-name="multiply" unicode="&#xd7;" horiz-adv-x="1073" 
d="M889 963l92 -103l-334 -280l248 -299l-109 -95l-247 293l-334 -280l-92 106l336 281l-250 297l112 98l248 -297z" />
    <glyph glyph-name="Oslash" unicode="&#xd8;" horiz-adv-x="1517" 
d="M1485 1446l84 -98l-187 -174q91 -153 91 -349q0 -171 -55 -324.5t-152 -266.5t-238 -179.5t-305 -66.5q-273 0 -438 168l-181 -168l-86 98l187 172q-92 153 -92 350q0 229 93 419.5t265.5 304.5t390.5 114q271 0 441 -170zM293 608q0 -125 47 -225l834 774
q-121 127 -320 127q-167 0 -296.5 -92t-197 -245t-67.5 -339zM1292 825q0 122 -45 224l-833 -775q121 -124 317 -124q167 0 296.5 91.5t197 244.5t67.5 339z" />
    <glyph glyph-name="Ugrave" unicode="&#xd9;" horiz-adv-x="1357" 
d="M801 1556l-189 279h191l125 -279h-127zM147 618l146 816h178l-149 -838q-13 -76 -13 -129q0 -156 82 -235.5t236 -79.5q187 0 290 113.5t144 342.5l147 826h178l-147 -828q-55 -305 -200.5 -461.5t-415.5 -156.5q-235 0 -363.5 119.5t-128.5 345.5q0 71 16 165z" />
    <glyph glyph-name="Uacute" unicode="&#xda;" horiz-adv-x="1357" 
d="M942 1559h-141l200 276h203zM147 618l146 816h178l-149 -838q-13 -76 -13 -129q0 -156 82 -235.5t236 -79.5q187 0 290 113.5t144 342.5l147 826h178l-147 -828q-55 -305 -200.5 -461.5t-415.5 -156.5q-235 0 -363.5 119.5t-128.5 345.5q0 71 16 165z" />
    <glyph glyph-name="Ucircumflex" unicode="&#xdb;" horiz-adv-x="1357" 
d="M1047 1556l-142 168l-213 -168h-168l307 279h160l209 -279h-153zM147 618l146 816h178l-149 -838q-13 -76 -13 -129q0 -156 82 -235.5t236 -79.5q187 0 290 113.5t144 342.5l147 826h178l-147 -828q-55 -305 -200.5 -461.5t-415.5 -156.5q-235 0 -363.5 119.5
t-128.5 345.5q0 71 16 165z" />
    <glyph glyph-name="Udieresis" unicode="&#xdc;" horiz-adv-x="1357" 
d="M709 1806q44 0 72 -26t28 -66q0 -50 -33 -82.5t-80 -32.5q-44 0 -72 27t-28 68q0 49 32.5 80.5t80.5 31.5zM1077 1806q44 0 72.5 -26t28.5 -66q0 -50 -33 -82.5t-80 -32.5q-44 0 -72 27t-28 68q0 49 32 80.5t80 31.5zM147 618l146 816h178l-149 -838q-13 -76 -13 -129
q0 -156 82 -235.5t236 -79.5q187 0 290 113.5t144 342.5l147 826h178l-147 -828q-55 -305 -200.5 -461.5t-415.5 -156.5q-235 0 -363.5 119.5t-128.5 345.5q0 71 16 165z" />
    <glyph glyph-name="Yacute" unicode="&#xdd;" horiz-adv-x="1292" 
d="M899 1559h-141l200 276h203zM672 707l555 727h207l-701 -904l-100 -530h-170l96 530l-381 904h187z" />
    <glyph glyph-name="Thorn" unicode="&#xde;" horiz-adv-x="1222" 
d="M223 0h-178l254 1434h178l-45 -246h336q209 0 324.5 -113t115.5 -289q0 -227 -149 -354t-391 -127h-392zM403 1024l-96 -555h357q164 0 263 81.5t99 237.5q0 113 -73 174.5t-199 61.5h-351z" />
    <glyph glyph-name="germandbls" unicode="&#xdf;" horiz-adv-x="1206" 
d="M633 -12q-105 0 -234 39l23 145q116 -35 213 -35q148 0 226.5 81t78.5 216q0 119 -86.5 176.5t-228.5 57.5q-36 0 -76 -4l26 147q172 2 275.5 74t103.5 215q0 93 -67 144.5t-174 51.5q-271 0 -326 -309l-174 -987h-168l174 989q41 236 170 346.5t328 110.5
q188 0 298.5 -93.5t110.5 -248.5q0 -134 -71.5 -227.5t-194.5 -126.5q105 -18 178.5 -103t73.5 -209q0 -197 -132 -323.5t-347 -126.5z" />
    <glyph glyph-name="agrave" unicode="&#xe0;" horiz-adv-x="1099" 
d="M588 1446l125 -279h-127l-189 279h191zM963 154h55l-27 -154h-86q-78 0 -121.5 31.5t-48.5 81.5q-152 -125 -348 -125q-162 0 -260 74t-98 208q0 90 34.5 157.5t98.5 109t148.5 61.5t189.5 20h311l10 56q6 48 6 67q0 78 -61 122t-166 44q-121 0 -189.5 -45.5
t-99.5 -130.5h-172q94 326 479 326q169 0 274 -79.5t105 -225.5q0 -43 -10 -105l-76 -405q-6 -30 -6 -43q0 -45 58 -45zM403 131q156 0 253.5 82.5t121.5 218.5l8 45h-317q-125 0 -196.5 -48t-71.5 -144q0 -75 54.5 -114.5t147.5 -39.5z" />
    <glyph glyph-name="aacute" unicode="&#xe1;" horiz-adv-x="1099" 
d="M786 1446h203l-262 -277h-141zM963 154h55l-27 -154h-86q-78 0 -121.5 31.5t-48.5 81.5q-152 -125 -348 -125q-162 0 -260 74t-98 208q0 90 34.5 157.5t98.5 109t148.5 61.5t189.5 20h311l10 56q6 48 6 67q0 78 -61 122t-166 44q-121 0 -189.5 -45.5t-99.5 -130.5h-172
q94 326 479 326q169 0 274 -79.5t105 -225.5q0 -43 -10 -105l-76 -405q-6 -30 -6 -43q0 -45 58 -45zM403 131q156 0 253.5 82.5t121.5 218.5l8 45h-317q-125 0 -196.5 -48t-71.5 -144q0 -75 54.5 -114.5t147.5 -39.5z" />
    <glyph glyph-name="acircumflex" unicode="&#xe2;" horiz-adv-x="1099" 
d="M831 1167l-141 168l-213 -168h-168l307 279h160l209 -279h-154zM963 154h55l-27 -154h-86q-78 0 -121.5 31.5t-48.5 81.5q-152 -125 -348 -125q-162 0 -260 74t-98 208q0 90 34.5 157.5t98.5 109t148.5 61.5t189.5 20h311l10 56q6 48 6 67q0 78 -61 122t-166 44
q-121 0 -189.5 -45.5t-99.5 -130.5h-172q94 326 479 326q169 0 274 -79.5t105 -225.5q0 -43 -10 -105l-76 -405q-6 -30 -6 -43q0 -45 58 -45zM403 131q156 0 253.5 82.5t121.5 218.5l8 45h-317q-125 0 -196.5 -48t-71.5 -144q0 -75 54.5 -114.5t147.5 -39.5z" />
    <glyph glyph-name="atilde" unicode="&#xe3;" horiz-adv-x="1099" 
d="M563 1325q-68 0 -90 -108h-115q20 111 75 169t134 58q39 0 68 -12t46.5 -29.5t31.5 -34.5t31 -29t38 -12q73 0 90 111h115q-20 -113 -73 -171.5t-130 -58.5q-48 0 -83 18.5t-50.5 40t-38 40t-49.5 18.5zM963 154h55l-27 -154h-86q-78 0 -121.5 31.5t-48.5 81.5
q-152 -125 -348 -125q-162 0 -260 74t-98 208q0 90 34.5 157.5t98.5 109t148.5 61.5t189.5 20h311l10 56q6 48 6 67q0 78 -61 122t-166 44q-121 0 -189.5 -45.5t-99.5 -130.5h-172q94 326 479 326q169 0 274 -79.5t105 -225.5q0 -43 -10 -105l-76 -405q-6 -30 -6 -43
q0 -45 58 -45zM403 131q156 0 253.5 82.5t121.5 218.5l8 45h-317q-125 0 -196.5 -48t-71.5 -144q0 -75 54.5 -114.5t147.5 -39.5z" />
    <glyph glyph-name="adieresis" unicode="&#xe4;" horiz-adv-x="1099" 
d="M481 1210q-44 0 -72 27t-28 68q0 49 32.5 80.5t80.5 31.5q44 0 72 -26t28 -66q0 -50 -33 -82.5t-80 -32.5zM850 1210q-44 0 -72 27t-28 68q0 49 32 80.5t80 31.5q44 0 72.5 -26t28.5 -66q0 -50 -33 -82.5t-80 -32.5zM963 154h55l-27 -154h-86q-78 0 -121.5 31.5
t-48.5 81.5q-152 -125 -348 -125q-162 0 -260 74t-98 208q0 90 34.5 157.5t98.5 109t148.5 61.5t189.5 20h311l10 56q6 48 6 67q0 78 -61 122t-166 44q-121 0 -189.5 -45.5t-99.5 -130.5h-172q94 326 479 326q169 0 274 -79.5t105 -225.5q0 -43 -10 -105l-76 -405
q-6 -30 -6 -43q0 -45 58 -45zM403 131q156 0 253.5 82.5t121.5 218.5l8 45h-317q-125 0 -196.5 -48t-71.5 -144q0 -75 54.5 -114.5t147.5 -39.5z" />
    <glyph glyph-name="aring" unicode="&#xe5;" horiz-adv-x="1099" 
d="M686 1141q-99 0 -168 66.5t-69 162.5q0 94 69 160.5t168 66.5t168.5 -66.5t69.5 -160.5q0 -95 -69 -162t-169 -67zM686 1501q-54 0 -91.5 -37.5t-37.5 -93.5q0 -58 37 -95.5t92 -37.5t92 37.5t37 95.5q0 56 -37.5 93.5t-91.5 37.5zM963 154h55l-27 -154h-86
q-78 0 -121.5 31.5t-48.5 81.5q-152 -125 -348 -125q-162 0 -260 74t-98 208q0 90 34.5 157.5t98.5 109t148.5 61.5t189.5 20h311l10 56q6 48 6 67q0 78 -61 122t-166 44q-121 0 -189.5 -45.5t-99.5 -130.5h-172q94 326 479 326q169 0 274 -79.5t105 -225.5q0 -43 -10 -105
l-76 -405q-6 -30 -6 -43q0 -45 58 -45zM403 131q156 0 253.5 82.5t121.5 218.5l8 45h-317q-125 0 -196.5 -48t-71.5 -144q0 -75 54.5 -114.5t147.5 -39.5z" />
    <glyph glyph-name="ae" unicode="&#xe6;" horiz-adv-x="1875" 
d="M311 731h-172q94 326 479 326q126 0 219.5 -45t133.5 -131q158 176 415 176q193 0 306.5 -111.5t113.5 -296.5q0 -95 -16 -166h-807q-2 -14 -2 -39q0 -128 79 -217.5t220 -89.5q82 0 142.5 27.5t97 72t67.5 113.5h170q-52 -175 -178 -268.5t-305 -93.5q-144 0 -252.5 63
t-163.5 174q-55 -111 -184.5 -174t-270.5 -63q-173 0 -273.5 73.5t-100.5 208.5q0 90 34.5 157.5t98.5 109t148.5 61.5t189.5 20h311l10 56q6 48 6 67q0 78 -61 122t-166 44q-121 0 -189.5 -45.5t-99.5 -130.5zM1366 909q-129 0 -224 -77.5t-128 -202.5h610q2 14 2 37
q0 115 -69.5 179t-190.5 64zM778 432l8 45h-317q-125 0 -196.5 -48t-71.5 -144q0 -75 54.5 -114.5t147.5 -39.5q156 0 253.5 82.5t121.5 218.5z" />
    <glyph glyph-name="ccedilla" unicode="&#xe7;" horiz-adv-x="1107" 
d="M545 137q108 0 188 57.5t115 165.5h170q-40 -179 -167 -273t-304 -99l-29 -74h17q66 0 109.5 -37.5t43.5 -97.5q0 -83 -61.5 -136t-151.5 -53h-170l17 103h133q104 0 104 67q0 56 -70 56h-108l70 178q-169 25 -272 149t-103 299q0 271 155.5 443t415.5 172
q189 0 299 -101t115 -268h-164q-10 103 -82.5 161t-181.5 58q-122 0 -211.5 -63.5t-132.5 -165t-43 -225.5q0 -142 82.5 -229t216.5 -87z" />
    <glyph glyph-name="egrave" unicode="&#xe8;" horiz-adv-x="1140" 
d="M627 1167l-189 279h191l125 -279h-127zM651 1057q193 0 306.5 -111.5t113.5 -296.5q0 -95 -16 -166h-807q-2 -14 -2 -39q0 -62 17.5 -116t52.5 -97.5t94 -68.5t135 -25q82 0 142.5 27.5t97 72t67.5 113.5h170q-52 -175 -178 -268.5t-305 -93.5q-216 0 -339.5 124.5
t-123.5 327.5q0 166 67 305t200 225.5t308 86.5zM279 629h610q2 14 2 37q0 115 -69.5 179t-190.5 64q-129 0 -224 -77.5t-128 -202.5z" />
    <glyph glyph-name="eacute" unicode="&#xe9;" horiz-adv-x="1140" 
d="M768 1169h-141l200 277h203zM651 1057q193 0 306.5 -111.5t113.5 -296.5q0 -95 -16 -166h-807q-2 -14 -2 -39q0 -62 17.5 -116t52.5 -97.5t94 -68.5t135 -25q82 0 142.5 27.5t97 72t67.5 113.5h170q-52 -175 -178 -268.5t-305 -93.5q-216 0 -339.5 124.5t-123.5 327.5
q0 166 67 305t200 225.5t308 86.5zM279 629h610q2 14 2 37q0 115 -69.5 179t-190.5 64q-129 0 -224 -77.5t-128 -202.5z" />
    <glyph glyph-name="ecircumflex" unicode="&#xea;" horiz-adv-x="1140" 
d="M872 1167l-141 168l-213 -168h-168l307 279h160l209 -279h-154zM651 1057q193 0 306.5 -111.5t113.5 -296.5q0 -95 -16 -166h-807q-2 -14 -2 -39q0 -62 17.5 -116t52.5 -97.5t94 -68.5t135 -25q82 0 142.5 27.5t97 72t67.5 113.5h170q-52 -175 -178 -268.5t-305 -93.5
q-216 0 -339.5 124.5t-123.5 327.5q0 166 67 305t200 225.5t308 86.5zM279 629h610q2 14 2 37q0 115 -69.5 179t-190.5 64q-129 0 -224 -77.5t-128 -202.5z" />
    <glyph glyph-name="edieresis" unicode="&#xeb;" horiz-adv-x="1140" 
d="M535 1417q44 0 72 -26t28 -66q0 -50 -33 -82.5t-80 -32.5q-44 0 -72 27t-28 68q0 49 32.5 80.5t80.5 31.5zM903 1417q44 0 72.5 -26t28.5 -66q0 -50 -33 -82.5t-80 -32.5q-44 0 -72 27t-28 68q0 49 32 80.5t80 31.5zM651 1057q193 0 306.5 -111.5t113.5 -296.5
q0 -95 -16 -166h-807q-2 -14 -2 -39q0 -62 17.5 -116t52.5 -97.5t94 -68.5t135 -25q82 0 142.5 27.5t97 72t67.5 113.5h170q-52 -175 -178 -268.5t-305 -93.5q-216 0 -339.5 124.5t-123.5 327.5q0 166 67 305t200 225.5t308 86.5zM279 629h610q2 14 2 37q0 115 -69.5 179
t-190.5 64q-129 0 -224 -77.5t-128 -202.5z" />
    <glyph glyph-name="igrave" unicode="&#xec;" horiz-adv-x="393" 
d="M250 1167l-189 279h191l125 -279h-127zM20 0l185 1044h168l-185 -1044h-168z" />
    <glyph glyph-name="iacute" unicode="&#xed;" horiz-adv-x="393" 
d="M391 1169h-141l201 277h202zM20 0l185 1044h168l-185 -1044h-168z" />
    <glyph glyph-name="icircumflex" unicode="&#xee;" horiz-adv-x="393" 
d="M496 1167l-142 168l-213 -168h-168l308 279h159l209 -279h-153zM20 0l185 1044h168l-185 -1044h-168z" />
    <glyph glyph-name="idieresis" unicode="&#xef;" horiz-adv-x="393" 
d="M158 1417q44 0 72 -26t28 -66q0 -50 -33 -82.5t-80 -32.5q-44 0 -72 27t-28 68q0 49 32.5 80.5t80.5 31.5zM526 1417q44 0 72.5 -26t28.5 -66q0 -50 -33 -82.5t-80 -32.5q-44 0 -72 27t-28 68q0 49 32 80.5t80 31.5zM20 0l185 1044h168l-185 -1044h-168z" />
    <glyph glyph-name="eth" unicode="&#xf0;" horiz-adv-x="1198" 
d="M1065 1456l55 -115l-225 -127q217 -234 217 -540q0 -145 -40 -270t-113.5 -217.5t-185.5 -145.5t-249 -53q-208 0 -334.5 109.5t-126.5 287.5q0 160 73 289t201.5 201.5t287.5 72.5q107 0 179.5 -32t135.5 -97q-39 179 -180 320l-266 -150l-56 115l219 123
q-85 67 -184 119l105 98q118 -56 219 -137zM520 135q173 0 291.5 112.5t118.5 291.5q0 121 -85 196.5t-212 75.5q-163 0 -280 -113t-117 -284q0 -124 76.5 -201.5t207.5 -77.5z" />
    <glyph glyph-name="ntilde" unicode="&#xf1;" horiz-adv-x="1136" 
d="M567 1325q-68 0 -90 -108h-115q20 111 75 169t134 58q39 0 68 -12t46.5 -29.5t31.5 -34.5t31 -29t38 -12q40 0 62 32.5t29 78.5h114q-20 -113 -73 -171.5t-130 -58.5q-48 0 -83 18.5t-50.5 40t-38 40t-49.5 18.5zM700 1057q160 0 259.5 -88t99.5 -264q0 -59 -12 -130
l-103 -575h-168l101 567q12 70 12 123q0 100 -59 156.5t-168 56.5q-149 0 -248.5 -103.5t-132.5 -283.5l-93 -516h-168l185 1044h145l-2 -135q140 148 352 148z" />
    <glyph glyph-name="ograve" unicode="&#xf2;" horiz-adv-x="1187" 
d="M645 1167l-188 279h190l125 -279h-127zM528 -12q-202 0 -328 126.5t-126 323.5q0 175 76.5 317t210.5 222t298 80q202 0 328.5 -127t126.5 -324q0 -175 -77 -317t-211 -221.5t-298 -79.5zM543 137q179 0 290 134.5t111 326.5q0 137 -84 223t-215 86q-179 0 -290 -134.5
t-111 -326.5q0 -137 84 -223t215 -86z" />
    <glyph glyph-name="oacute" unicode="&#xf3;" horiz-adv-x="1187" 
d="M786 1169h-141l201 277h203zM528 -12q-202 0 -328 126.5t-126 323.5q0 175 76.5 317t210.5 222t298 80q202 0 328.5 -127t126.5 -324q0 -175 -77 -317t-211 -221.5t-298 -79.5zM543 137q179 0 290 134.5t111 326.5q0 137 -84 223t-215 86q-179 0 -290 -134.5t-111 -326.5
q0 -137 84 -223t215 -86z" />
    <glyph glyph-name="ocircumflex" unicode="&#xf4;" horiz-adv-x="1187" 
d="M891 1167l-141 168l-213 -168h-168l307 279h160l208 -279h-153zM528 -12q-202 0 -328 126.5t-126 323.5q0 175 76.5 317t210.5 222t298 80q202 0 328.5 -127t126.5 -324q0 -175 -77 -317t-211 -221.5t-298 -79.5zM543 137q179 0 290 134.5t111 326.5q0 137 -84 223
t-215 86q-179 0 -290 -134.5t-111 -326.5q0 -137 84 -223t215 -86z" />
    <glyph glyph-name="otilde" unicode="&#xf5;" horiz-adv-x="1187" 
d="M627 1444q39 0 68 -12t46.5 -29.5t31.5 -34.5t31 -29t38 -12q73 0 90 111h115q-20 -113 -73 -171.5t-130 -58.5q-48 0 -83 18.5t-50.5 40t-38 40t-49.5 18.5q-69 0 -91 -108h-114q20 111 75 169t134 58zM528 -12q-202 0 -328 126.5t-126 323.5q0 175 76.5 317t210.5 222
t298 80q202 0 328.5 -127t126.5 -324q0 -175 -77 -317t-211 -221.5t-298 -79.5zM543 137q179 0 290 134.5t111 326.5q0 137 -84 223t-215 86q-179 0 -290 -134.5t-111 -326.5q0 -137 84 -223t215 -86z" />
    <glyph glyph-name="odieresis" unicode="&#xf6;" horiz-adv-x="1187" 
d="M553 1417q44 0 72 -26t28 -66q0 -50 -32.5 -82.5t-79.5 -32.5q-44 0 -72.5 27t-28.5 68q0 49 32.5 80.5t80.5 31.5zM922 1417q44 0 72 -26t28 -66q0 -50 -33 -82.5t-80 -32.5q-44 0 -72 27t-28 68q0 49 32.5 80.5t80.5 31.5zM528 -12q-202 0 -328 126.5t-126 323.5
q0 175 76.5 317t210.5 222t298 80q202 0 328.5 -127t126.5 -324q0 -175 -77 -317t-211 -221.5t-298 -79.5zM543 137q179 0 290 134.5t111 326.5q0 137 -84 223t-215 86q-179 0 -290 -134.5t-111 -326.5q0 -137 84 -223t215 -86z" />
    <glyph glyph-name="divide" unicode="&#xf7;" horiz-adv-x="1073" 
d="M627 1069q45 0 72.5 -26.5t27.5 -69.5q0 -55 -38.5 -92t-90.5 -35q-45 1 -71.5 28t-26.5 70q0 54 38 89.5t89 35.5zM954 516h-835l24 141h836zM496 328q45 0 72.5 -27t27.5 -70q0 -55 -38.5 -92t-90.5 -35q-45 1 -71.5 28.5t-26.5 70.5q0 54 38 89.5t89 35.5z" />
    <glyph glyph-name="oslash" unicode="&#xf8;" horiz-adv-x="1187" 
d="M1094 1057l82 -96l-127 -115q63 -108 63 -246q0 -175 -76 -315.5t-209.5 -218.5t-298.5 -78q-185 0 -309 108l-121 -108l-80 96l121 109q-65 106 -65 245q0 175 76.5 317t210.5 222t298 80q188 0 310 -113zM244 446q0 -79 26 -135l576 523q-79 73 -201 73
q-179 0 -290 -134.5t-111 -326.5zM942 598q0 74 -24 129l-576 -518q85 -72 201 -72q119 0 211.5 64t140 168t47.5 229z" />
    <glyph glyph-name="ugrave" unicode="&#xf9;" horiz-adv-x="1114" 
d="M598 1446l125 -279h-127l-188 279h190zM836 528l90 516h168l-185 -1044h-143v131q-139 -143 -342 -143q-156 0 -251 82.5t-95 248.5q0 70 14 152l101 573h167l-100 -575q-12 -74 -12 -127q0 -98 52.5 -149.5t156.5 -51.5q145 0 246.5 104.5t132.5 282.5z" />
    <glyph glyph-name="uacute" unicode="&#xfa;" horiz-adv-x="1114" 
d="M797 1446h202l-262 -277h-141zM836 528l90 516h168l-185 -1044h-143v131q-139 -143 -342 -143q-156 0 -251 82.5t-95 248.5q0 70 14 152l101 573h167l-100 -575q-12 -74 -12 -127q0 -98 52.5 -149.5t156.5 -51.5q145 0 246.5 104.5t132.5 282.5z" />
    <glyph glyph-name="ucircumflex" unicode="&#xfb;" horiz-adv-x="1114" 
d="M842 1167l-142 168l-213 -168h-168l308 279h159l209 -279h-153zM836 528l90 516h168l-185 -1044h-143v131q-139 -143 -342 -143q-156 0 -251 82.5t-95 248.5q0 70 14 152l101 573h167l-100 -575q-12 -74 -12 -127q0 -98 52.5 -149.5t156.5 -51.5q145 0 246.5 104.5
t132.5 282.5z" />
    <glyph glyph-name="udieresis" unicode="&#xfc;" horiz-adv-x="1114" 
d="M492 1210q-44 0 -72.5 27t-28.5 68q0 49 32.5 80.5t80.5 31.5q44 0 72 -26t28 -66q0 -50 -32.5 -82.5t-79.5 -32.5zM860 1210q-44 0 -72 27t-28 68q0 49 32 80.5t80 31.5q44 0 72.5 -26t28.5 -66q0 -50 -33 -82.5t-80 -32.5zM836 528l90 516h168l-185 -1044h-143v131
q-139 -143 -342 -143q-156 0 -251 82.5t-95 248.5q0 70 14 152l101 573h167l-100 -575q-12 -74 -12 -127q0 -98 52.5 -149.5t156.5 -51.5q145 0 246.5 104.5t132.5 282.5z" />
    <glyph glyph-name="yacute" unicode="&#xfd;" horiz-adv-x="1009" 
d="M692 1169h-141l201 277h202zM319 -8l-217 1052h170l166 -849l471 849h183l-699 -1226q-41 -72 -65.5 -108t-58 -67.5t-71 -42t-92.5 -10.5h-206l26 154h144q70 0 106 26t78 103z" />
    <glyph glyph-name="thorn" unicode="&#xfe;" horiz-adv-x="1206" 
d="M696 1057q193 0 313.5 -128.5t120.5 -324.5q0 -267 -160.5 -441.5t-400.5 -174.5q-138 0 -227 50t-127 130l-98 -578h-168l325 1844h168l-90 -531q140 154 344 154zM555 137q92 0 170 39.5t128 103t77.5 141t27.5 157.5q0 158 -77.5 243.5t-210.5 85.5q-92 0 -169.5 -39
t-127.5 -102.5t-77.5 -141.5t-27.5 -157q0 -158 77.5 -244t209.5 -86z" />
    <glyph glyph-name="ydieresis" unicode="&#xff;" horiz-adv-x="1009" 
d="M459 1417q44 0 72 -26t28 -66q0 -50 -33 -82.5t-80 -32.5q-44 0 -72 27t-28 68q0 49 32.5 80.5t80.5 31.5zM827 1417q44 0 72.5 -26t28.5 -66q0 -50 -33 -82.5t-80 -32.5q-44 0 -72 27t-28 68q0 49 32 80.5t80 31.5zM319 -8l-217 1052h170l166 -849l471 849h183
l-699 -1226q-41 -72 -65.5 -108t-58 -67.5t-71 -42t-92.5 -10.5h-206l26 154h144q70 0 106 26t78 103z" />
    <glyph glyph-name="Amacron" unicode="&#x100;" horiz-adv-x="1329" 
d="M1155 1645h-563l22 127h564zM1217 0h-179l-75 387h-629l-211 -387h-195l795 1434h209zM799 1237l-377 -688h510z" />
    <glyph glyph-name="amacron" unicode="&#x101;" horiz-adv-x="1099" 
d="M406 1382h563l-23 -127h-563zM963 154h55l-27 -154h-86q-78 0 -121.5 31.5t-48.5 81.5q-152 -125 -348 -125q-162 0 -260 74t-98 208q0 90 34.5 157.5t98.5 109t148.5 61.5t189.5 20h311l10 56q6 48 6 67q0 78 -61 122t-166 44q-121 0 -189.5 -45.5t-99.5 -130.5h-172
q94 326 479 326q169 0 274 -79.5t105 -225.5q0 -43 -10 -105l-76 -405q-6 -30 -6 -43q0 -45 58 -45zM403 131q156 0 253.5 82.5t121.5 218.5l8 45h-317q-125 0 -196.5 -48t-71.5 -144q0 -75 54.5 -114.5t147.5 -39.5z" />
    <glyph glyph-name="Abreve" unicode="&#x102;" horiz-adv-x="1329" 
d="M604 1835h131q0 -73 32 -112.5t93 -39.5q68 0 116 43.5t60 108.5h131q-26 -133 -110 -207t-205 -74q-124 0 -186 75.5t-62 205.5zM1217 0h-179l-75 387h-629l-211 -387h-195l795 1434h209zM799 1237l-377 -688h510z" />
    <glyph glyph-name="abreve" unicode="&#x103;" horiz-adv-x="1099" 
d="M643 1165q-124 0 -186 75.5t-62 205.5h131q0 -73 32 -112.5t93 -39.5q68 0 116 43.5t60 108.5h131q-26 -133 -110 -207t-205 -74zM963 154h55l-27 -154h-86q-78 0 -121.5 31.5t-48.5 81.5q-152 -125 -348 -125q-162 0 -260 74t-98 208q0 90 34.5 157.5t98.5 109
t148.5 61.5t189.5 20h311l10 56q6 48 6 67q0 78 -61 122t-166 44q-121 0 -189.5 -45.5t-99.5 -130.5h-172q94 326 479 326q169 0 274 -79.5t105 -225.5q0 -43 -10 -105l-76 -405q-6 -30 -6 -43q0 -45 58 -45zM403 131q156 0 253.5 82.5t121.5 218.5l8 45h-317
q-125 0 -196.5 -48t-71.5 -144q0 -75 54.5 -114.5t147.5 -39.5z" />
    <glyph glyph-name="Aogonek" unicode="&#x104;" horiz-adv-x="1329" 
d="M965 -223q0 -33 18.5 -48.5t63.5 -15.5h131l-21 -123h-153q-84 0 -134.5 41t-50.5 111q0 79 55 143t160 133l-71 369h-629l-211 -387h-195l795 1434h209l285 -1434q-108 -53 -180 -114t-72 -109zM799 1237l-377 -688h510z" />
    <glyph glyph-name="aogonek" unicode="&#x105;" horiz-adv-x="1099" 
d="M1018 154l-27 -154q-108 -53 -180 -114t-72 -109q0 -33 18.5 -48.5t63.5 -15.5h131l-20 -123h-154q-84 0 -134 41t-50 111q0 80 55.5 143.5t159.5 130.5q-67 29 -74 97q-152 -125 -348 -125q-162 0 -260 74t-98 208q0 90 34.5 157.5t98.5 109t148.5 61.5t189.5 20h311
l10 56q6 48 6 67q0 78 -61 122t-166 44q-121 0 -189.5 -45.5t-99.5 -130.5h-172q94 326 479 326q169 0 274 -79.5t105 -225.5q0 -43 -10 -105l-76 -405q-6 -30 -6 -43q0 -45 58 -45h55zM403 131q156 0 253.5 82.5t121.5 218.5l8 45h-317q-125 0 -196.5 -48t-71.5 -144
q0 -75 54.5 -114.5t147.5 -39.5z" />
    <glyph glyph-name="Cacute" unicode="&#x106;" horiz-adv-x="1431" 
d="M991 1559h-141l201 276h202zM715 -12q-268 0 -435 172.5t-167 449.5q0 167 54 318.5t150.5 266.5t240.5 183t314 68q242 0 390 -131t157 -352h-174q-22 150 -123 234.5t-264 84.5q-105 0 -196 -37t-157.5 -101t-114 -149t-71.5 -184t-24 -203q0 -204 117 -330t305 -126
q165 0 275.5 80t178.5 239h179q-75 -235 -238 -359t-397 -124z" />
    <glyph glyph-name="cacute" unicode="&#x107;" horiz-adv-x="1107" 
d="M748 1169h-142l201 277h203zM848 360h170q-41 -183 -174 -277.5t-316 -94.5q-200 0 -326 129t-126 325q0 271 155.5 443t415.5 172q189 0 299 -101t115 -268h-164q-10 103 -82.5 161t-181.5 58q-122 0 -211.5 -63.5t-132.5 -165t-43 -225.5q0 -142 82.5 -229t216.5 -87
q108 0 188 57.5t115 165.5z" />
    <glyph glyph-name="Ccircumflex" unicode="&#x108;" horiz-adv-x="1431" 
d="M1096 1556l-142 168l-213 -168h-168l308 279h159l209 -279h-153zM715 -12q-268 0 -435 172.5t-167 449.5q0 167 54 318.5t150.5 266.5t240.5 183t314 68q242 0 390 -131t157 -352h-174q-22 150 -123 234.5t-264 84.5q-105 0 -196 -37t-157.5 -101t-114 -149t-71.5 -184
t-24 -203q0 -204 117 -330t305 -126q165 0 275.5 80t178.5 239h179q-75 -235 -238 -359t-397 -124z" />
    <glyph glyph-name="ccircumflex" unicode="&#x109;" horiz-adv-x="1107" 
d="M852 1167l-141 168l-213 -168h-168l307 279h160l209 -279h-154zM848 360h170q-41 -183 -174 -277.5t-316 -94.5q-200 0 -326 129t-126 325q0 271 155.5 443t415.5 172q189 0 299 -101t115 -268h-164q-10 103 -82.5 161t-181.5 58q-122 0 -211.5 -63.5t-132.5 -165
t-43 -225.5q0 -142 82.5 -229t216.5 -87q108 0 188 57.5t115 165.5z" />
    <glyph glyph-name="Cdotaccent" unicode="&#x10a;" horiz-adv-x="1431" 
d="M932 1610q-44 0 -73.5 27.5t-29.5 70.5q0 51 35 85t82 34q44 0 72.5 -27.5t28.5 -70.5q0 -51 -34 -85t-81 -34zM715 -12q-268 0 -435 172.5t-167 449.5q0 167 54 318.5t150.5 266.5t240.5 183t314 68q242 0 390 -131t157 -352h-174q-22 150 -123 234.5t-264 84.5
q-105 0 -196 -37t-157.5 -101t-114 -149t-71.5 -184t-24 -203q0 -204 117 -330t305 -126q165 0 275.5 80t178.5 239h179q-75 -235 -238 -359t-397 -124z" />
    <glyph glyph-name="cdotaccent" unicode="&#x10b;" horiz-adv-x="1107" 
d="M688 1221q-44 0 -73 27.5t-29 70.5q0 51 34.5 85t81.5 34q44 0 72.5 -28t28.5 -71q0 -51 -34 -84.5t-81 -33.5zM848 360h170q-41 -183 -174 -277.5t-316 -94.5q-200 0 -326 129t-126 325q0 271 155.5 443t415.5 172q189 0 299 -101t115 -268h-164q-10 103 -82.5 161
t-181.5 58q-122 0 -211.5 -63.5t-132.5 -165t-43 -225.5q0 -142 82.5 -229t216.5 -87q108 0 188 57.5t115 165.5z" />
    <glyph glyph-name="Ccaron" unicode="&#x10c;" horiz-adv-x="1431" 
d="M782 1835l140 -168l215 168h166l-308 -279h-159l-209 279h155zM715 -12q-268 0 -435 172.5t-167 449.5q0 167 54 318.5t150.5 266.5t240.5 183t314 68q242 0 390 -131t157 -352h-174q-22 150 -123 234.5t-264 84.5q-105 0 -196 -37t-157.5 -101t-114 -149t-71.5 -184
t-24 -203q0 -204 117 -330t305 -126q165 0 275.5 80t178.5 239h179q-75 -235 -238 -359t-397 -124z" />
    <glyph glyph-name="ccaron" unicode="&#x10d;" horiz-adv-x="1107" 
d="M539 1446l139 -168l215 168h166l-307 -279h-160l-209 279h156zM848 360h170q-41 -183 -174 -277.5t-316 -94.5q-200 0 -326 129t-126 325q0 271 155.5 443t415.5 172q189 0 299 -101t115 -268h-164q-10 103 -82.5 161t-181.5 58q-122 0 -211.5 -63.5t-132.5 -165
t-43 -225.5q0 -142 82.5 -229t216.5 -87q108 0 188 57.5t115 165.5z" />
    <glyph glyph-name="Dcaron" unicode="&#x10e;" horiz-adv-x="1394" 
d="M659 1835l140 -168l215 168h166l-308 -279h-159l-209 279h155zM512 0h-467l254 1434h379q310 0 491 -168t181 -445q0 -176 -58 -327t-164.5 -260.5t-265 -171.5t-350.5 -62zM446 1270l-194 -1106h274q295 0 469 180t174 473q0 224 -132.5 338.5t-370.5 114.5h-220z" />
    <glyph glyph-name="dcaron" unicode="&#x10f;" horiz-adv-x="1343" 
d="M989 874l96 560h168l-254 -1434h-145v137q-131 -149 -346 -149q-193 0 -313.5 126.5t-120.5 321.5q0 176 73.5 318.5t201.5 222.5t286 80q138 0 227 -50.5t127 -132.5zM1296 1135l136 299h159l-170 -299h-125zM535 137q92 0 169.5 39.5t127 103t77 141.5t27.5 157
q0 158 -77.5 243.5t-209.5 85.5q-92 0 -170 -39t-128 -102.5t-77.5 -141.5t-27.5 -157q0 -158 78 -244t211 -86z" />
    <glyph glyph-name="Dcroat" unicode="&#x110;" horiz-adv-x="1447" 
d="M352 1434h379q310 0 491 -168t181 -445q0 -176 -58 -327t-164.5 -260.5t-265 -171.5t-350.5 -62h-467l117 653h-178l26 152h179zM305 164h275q295 0 469 180t174 473q0 224 -132.5 338.5t-371.5 114.5h-219l-82 -465h291l-27 -152h-291z" />
    <glyph glyph-name="dcroat" unicode="&#x111;" horiz-adv-x="1216" 
d="M1231 1303h184l-24 -144h-187l-205 -1159h-145v137q-131 -149 -346 -149q-193 0 -313.5 126.5t-120.5 321.5q0 176 73.5 318.5t201.5 222.5t286 80q138 0 227 -50.5t127 -132.5l49 285h-288l24 144h289l22 131h168zM535 137q92 0 169.5 39.5t127 103t77 141.5t27.5 157
q0 158 -77.5 243.5t-209.5 85.5q-92 0 -170 -39t-128 -102.5t-77.5 -141.5t-27.5 -157q0 -158 78 -244t211 -86z" />
    <glyph glyph-name="Emacron" unicode="&#x112;" horiz-adv-x="1132" 
d="M1061 1645h-563l22 127h563zM45 0l254 1434h903l-31 -164h-725l-79 -459h602l-29 -164h-602l-86 -483h752l-29 -164h-930z" />
    <glyph glyph-name="emacron" unicode="&#x113;" horiz-adv-x="1140" 
d="M987 1255h-563l22 127h564zM651 1057q193 0 306.5 -111.5t113.5 -296.5q0 -95 -16 -166h-807q-2 -14 -2 -39q0 -62 17.5 -116t52.5 -97.5t94 -68.5t135 -25q82 0 142.5 27.5t97 72t67.5 113.5h170q-52 -175 -178 -268.5t-305 -93.5q-216 0 -339.5 124.5t-123.5 327.5
q0 166 67 305t200 225.5t308 86.5zM279 629h610q2 14 2 37q0 115 -69.5 179t-190.5 64q-129 0 -224 -77.5t-128 -202.5z" />
    <glyph glyph-name="Ebreve" unicode="&#x114;" horiz-adv-x="1132" 
d="M510 1835h131q0 -73 32 -112.5t93 -39.5q68 0 116 43.5t60 108.5h131q-26 -133 -110 -207t-205 -74q-124 0 -186 75.5t-62 205.5zM45 0l254 1434h903l-31 -164h-725l-79 -459h602l-29 -164h-602l-86 -483h752l-29 -164h-930z" />
    <glyph glyph-name="ebreve" unicode="&#x115;" horiz-adv-x="1140" 
d="M436 1446h131q0 -73 32 -112.5t93 -39.5q68 0 116 43.5t60 108.5h131q-26 -133 -110 -207t-205 -74q-124 0 -186 75.5t-62 205.5zM651 1057q193 0 306.5 -111.5t113.5 -296.5q0 -95 -16 -166h-807q-2 -14 -2 -39q0 -62 17.5 -116t52.5 -97.5t94 -68.5t135 -25
q82 0 142.5 27.5t97 72t67.5 113.5h170q-52 -175 -178 -268.5t-305 -93.5q-216 0 -339.5 124.5t-123.5 327.5q0 166 67 305t200 225.5t308 86.5zM279 629h610q2 14 2 37q0 115 -69.5 179t-190.5 64q-129 0 -224 -77.5t-128 -202.5z" />
    <glyph glyph-name="Edotaccent" unicode="&#x116;" horiz-adv-x="1132" 
d="M782 1610q-44 0 -73 27.5t-29 70.5q0 51 35 85t82 34q44 0 72 -27.5t28 -70.5q0 -51 -34 -85t-81 -34zM45 0l254 1434h903l-31 -164h-725l-79 -459h602l-29 -164h-602l-86 -483h752l-29 -164h-930z" />
    <glyph glyph-name="edotaccent" unicode="&#x117;" horiz-adv-x="1140" 
d="M709 1221q-44 0 -73.5 27.5t-29.5 70.5q0 51 35 85t82 34q44 0 72 -28t28 -71q0 -51 -33.5 -84.5t-80.5 -33.5zM651 1057q193 0 306.5 -111.5t113.5 -296.5q0 -95 -16 -166h-807q-2 -14 -2 -39q0 -62 17.5 -116t52.5 -97.5t94 -68.5t135 -25q82 0 142.5 27.5t97 72
t67.5 113.5h170q-52 -175 -178 -268.5t-305 -93.5q-216 0 -339.5 124.5t-123.5 327.5q0 166 67 305t200 225.5t308 86.5zM279 629h610q2 14 2 37q0 115 -69.5 179t-190.5 64q-129 0 -224 -77.5t-128 -202.5z" />
    <glyph glyph-name="Eogonek" unicode="&#x118;" horiz-adv-x="1132" 
d="M1202 1434l-31 -164h-725l-79 -459h602l-29 -164h-602l-86 -483h752l-29 -164q-108 -53 -180 -114t-72 -109q0 -33 18.5 -48.5t63.5 -15.5h131l-21 -123h-153q-84 0 -134 41t-50 111q0 73 48.5 134t139.5 124h-721l254 1434h903z" />
    <glyph glyph-name="eogonek" unicode="&#x119;" horiz-adv-x="1140" 
d="M651 1057q193 0 306.5 -111.5t113.5 -296.5q0 -95 -16 -166h-807q-2 -14 -2 -39q0 -136 78 -221.5t221 -85.5q82 0 142.5 27.5t97 72t67.5 113.5h170q-53 -182 -199 -282q-107 -74 -191.5 -159t-84.5 -132q0 -33 18.5 -48.5t63.5 -15.5h131l-21 -123h-153
q-84 0 -134.5 41t-50.5 111q0 103 158 246h-20q-215 0 -339 124.5t-124 327.5q0 166 67 305t200 225.5t308 86.5zM631 909q-129 0 -224 -77.5t-128 -202.5h610q2 14 2 37q0 115 -69.5 179t-190.5 64z" />
    <glyph glyph-name="Ecaron" unicode="&#x11a;" horiz-adv-x="1132" 
d="M633 1835l139 -168l215 168h166l-307 -279h-160l-209 279h156zM45 0l254 1434h903l-31 -164h-725l-79 -459h602l-29 -164h-602l-86 -483h752l-29 -164h-930z" />
    <glyph glyph-name="ecaron" unicode="&#x11b;" horiz-adv-x="1140" 
d="M559 1446l139 -168l215 168h166l-307 -279h-160l-209 279h156zM651 1057q193 0 306.5 -111.5t113.5 -296.5q0 -95 -16 -166h-807q-2 -14 -2 -39q0 -62 17.5 -116t52.5 -97.5t94 -68.5t135 -25q82 0 142.5 27.5t97 72t67.5 113.5h170q-52 -175 -178 -268.5t-305 -93.5
q-216 0 -339.5 124.5t-123.5 327.5q0 166 67 305t200 225.5t308 86.5zM279 629h610q2 14 2 37q0 115 -69.5 179t-190.5 64q-129 0 -224 -77.5t-128 -202.5z" />
    <glyph glyph-name="Gcircumflex" unicode="&#x11c;" horiz-adv-x="1529" 
d="M1120 1556l-141 168l-213 -168h-168l307 279h160l209 -279h-154zM895 1446q248 0 399 -130.5t152 -348.5h-170q-15 151 -121.5 233t-271.5 82q-134 0 -246.5 -56.5t-187 -151.5t-115.5 -218t-41 -258q0 -197 114 -321.5t302 -124.5q202 0 343.5 111.5t172.5 297.5l8 51
h-430l28 164h605l-138 -776h-151l18 203q-36 -44 -74.5 -78.5t-94 -67.5t-130.5 -51t-164 -18q-268 0 -429.5 171t-161.5 441q0 172 55.5 326t155 269.5t248 183t325.5 67.5z" />
    <glyph glyph-name="gcircumflex" unicode="&#x11d;" horiz-adv-x="1204" 
d="M874 1167l-141 168l-213 -168h-168l307 279h160l209 -279h-154zM983 887l55 157h146l-176 -999q-41 -234 -173 -350.5t-389 -116.5q-213 0 -328.5 88t-115.5 260h168q4 -96 80.5 -147t202.5 -51q169 0 266 82.5t125 252.5l12 82q-139 -157 -348 -157q-193 0 -313.5 126.5
t-120.5 321.5q0 176 73.5 318.5t201.5 222.5t286 80q133 0 220.5 -47.5t127.5 -122.5zM535 137q92 0 169.5 39.5t127 103t77 141.5t27.5 157q0 158 -77.5 243.5t-209.5 85.5q-92 0 -170 -39t-128 -102.5t-77.5 -141.5t-27.5 -157q0 -158 78 -244t211 -86z" />
    <glyph glyph-name="Gbreve" unicode="&#x11e;" horiz-adv-x="1529" 
d="M684 1835h131q0 -73 32 -112.5t93 -39.5q68 0 116 43.5t60 108.5h131q-26 -133 -110 -207t-205 -74q-124 0 -186 75.5t-62 205.5zM895 1446q248 0 399 -130.5t152 -348.5h-170q-15 151 -121.5 233t-271.5 82q-134 0 -246.5 -56.5t-187 -151.5t-115.5 -218t-41 -258
q0 -197 114 -321.5t302 -124.5q202 0 343.5 111.5t172.5 297.5l8 51h-430l28 164h605l-138 -776h-151l18 203q-36 -44 -74.5 -78.5t-94 -67.5t-130.5 -51t-164 -18q-268 0 -429.5 171t-161.5 441q0 172 55.5 326t155 269.5t248 183t325.5 67.5z" />
    <glyph glyph-name="gbreve" unicode="&#x11f;" horiz-adv-x="1204" 
d="M686 1165q-124 0 -186 75.5t-62 205.5h131q0 -73 32 -112.5t93 -39.5q68 0 116 43.5t60 108.5h131q-26 -133 -110 -207t-205 -74zM983 887l55 157h146l-176 -999q-41 -234 -173 -350.5t-389 -116.5q-213 0 -328.5 88t-115.5 260h168q4 -96 80.5 -147t202.5 -51
q169 0 266 82.5t125 252.5l12 82q-139 -157 -348 -157q-193 0 -313.5 126.5t-120.5 321.5q0 176 73.5 318.5t201.5 222.5t286 80q133 0 220.5 -47.5t127.5 -122.5zM535 137q92 0 169.5 39.5t127 103t77 141.5t27.5 157q0 158 -77.5 243.5t-209.5 85.5q-92 0 -170 -39
t-128 -102.5t-77.5 -141.5t-27.5 -157q0 -158 78 -244t211 -86z" />
    <glyph glyph-name="Gdotaccent" unicode="&#x120;" horiz-adv-x="1529" 
d="M956 1610q-44 0 -73 27.5t-29 70.5q0 51 35 85t82 34q44 0 72 -27.5t28 -70.5q0 -51 -34 -85t-81 -34zM895 1446q248 0 399 -130.5t152 -348.5h-170q-15 151 -121.5 233t-271.5 82q-134 0 -246.5 -56.5t-187 -151.5t-115.5 -218t-41 -258q0 -197 114 -321.5t302 -124.5
q202 0 343.5 111.5t172.5 297.5l8 51h-430l28 164h605l-138 -776h-151l18 203q-36 -44 -74.5 -78.5t-94 -67.5t-130.5 -51t-164 -18q-268 0 -429.5 171t-161.5 441q0 172 55.5 326t155 269.5t248 183t325.5 67.5z" />
    <glyph glyph-name="gdotaccent" unicode="&#x121;" horiz-adv-x="1204" 
d="M711 1221q-44 0 -73.5 27.5t-29.5 70.5q0 51 35 85t82 34q44 0 72 -28t28 -71q0 -51 -33.5 -84.5t-80.5 -33.5zM983 887l55 157h146l-176 -999q-41 -234 -173 -350.5t-389 -116.5q-213 0 -328.5 88t-115.5 260h168q4 -96 80.5 -147t202.5 -51q169 0 266 82.5t125 252.5
l12 82q-139 -157 -348 -157q-193 0 -313.5 126.5t-120.5 321.5q0 176 73.5 318.5t201.5 222.5t286 80q133 0 220.5 -47.5t127.5 -122.5zM535 137q92 0 169.5 39.5t127 103t77 141.5t27.5 157q0 158 -77.5 243.5t-209.5 85.5q-92 0 -170 -39t-128 -102.5t-77.5 -141.5
t-27.5 -157q0 -158 78 -244t211 -86z" />
    <glyph glyph-name="uni0122" unicode="&#x122;" horiz-adv-x="1529" 
d="M895 1446q248 0 399 -130.5t152 -348.5h-170q-15 151 -121.5 233t-271.5 82q-134 0 -246.5 -56.5t-187 -151.5t-115.5 -218t-41 -258q0 -197 114 -321.5t302 -124.5q202 0 343.5 111.5t172.5 297.5l8 51h-430l28 164h605l-138 -776h-151l18 203q-36 -44 -74.5 -78.5
t-94 -67.5t-130.5 -51t-164 -18q-268 0 -429.5 171t-161.5 441q0 172 55.5 326t155 269.5t248 183t325.5 67.5zM475 -397l152 293h168l-195 -293h-125z" />
    <glyph glyph-name="uni0123" unicode="&#x123;" horiz-adv-x="1204" 
d="M776 1446h131l-151 -293h-168zM983 887l55 157h146l-176 -999q-41 -234 -173 -350.5t-389 -116.5q-213 0 -328.5 88t-115.5 260h168q4 -96 80.5 -147t202.5 -51q169 0 266 82.5t125 252.5l12 82q-139 -157 -348 -157q-193 0 -313.5 126.5t-120.5 321.5q0 176 73.5 318.5
t201.5 222.5t286 80q133 0 220.5 -47.5t127.5 -122.5zM535 137q92 0 169.5 39.5t127 103t77 141.5t27.5 157q0 158 -77.5 243.5t-209.5 85.5q-92 0 -170 -39t-128 -102.5t-77.5 -141.5t-27.5 -157q0 -158 78 -244t211 -86z" />
    <glyph glyph-name="Hcircumflex" unicode="&#x124;" horiz-adv-x="1363" 
d="M1047 1556l-142 168l-213 -168h-168l307 279h160l209 -279h-153zM45 0l254 1434h178l-110 -623h729l110 623h178l-254 -1434h-178l115 647h-729l-115 -647h-178z" />
    <glyph glyph-name="hcircumflex" unicode="&#x125;" horiz-adv-x="1136" 
d="M559 1536l-141 168l-213 -168h-168l307 279h160l209 -279h-154zM700 1057q160 0 259.5 -88t99.5 -264q0 -59 -12 -130l-103 -575h-168l101 567q12 70 12 123q0 100 -59 156.5t-168 56.5q-148 0 -248 -104t-133 -283l-93 -516h-168l254 1434h168l-94 -547q137 170 352 170
z" />
    <glyph glyph-name="Hbar" unicode="&#x126;" horiz-adv-x="1409" 
d="M1370 1184h152l-27 -152h-152l-182 -1032h-178l111 627h-742l-110 -627h-179l183 1032h-152l27 152h151l45 250h179l-45 -250h741l45 250h178zM381 791h741l43 241h-741z" />
    <glyph glyph-name="hbar" unicode="&#x127;" horiz-adv-x="1157" 
d="M721 1057q160 0 259 -88t99 -264q0 -59 -12 -130l-102 -575h-168l100 567q12 70 12 123q0 100 -59 156.5t-168 56.5q-148 0 -248 -104t-133 -283l-92 -516h-168l205 1159h-174l24 144h176l23 131h168l-23 -131h297l-24 -144h-297l-47 -272q137 170 352 170z" />
    <glyph glyph-name="Itilde" unicode="&#x128;" horiz-adv-x="456" 
d="M328 1833q39 0 68 -12t46.5 -29.5t31.5 -34.5t31 -29t38 -12q73 0 90 111h115q-20 -113 -73 -171.5t-130 -58.5q-48 0 -83 18.5t-50.5 40t-38 40t-49.5 18.5q-69 0 -91 -108h-114q20 111 75 169t134 58zM45 0l254 1434h178l-254 -1434h-178z" />
    <glyph glyph-name="itilde" unicode="&#x129;" horiz-adv-x="393" 
d="M231 1444q39 0 68 -12t46.5 -29.5t31.5 -34.5t31 -29t38 -12q40 0 62 32.5t29 78.5h114q-20 -113 -72.5 -171.5t-129.5 -58.5q-48 0 -83 18.5t-51 40t-38.5 40t-49.5 18.5q-68 0 -90 -108h-114q20 112 75 169.5t133 57.5zM20 0l185 1044h168l-185 -1044h-168z" />
    <glyph glyph-name="Imacron" unicode="&#x12a;" horiz-adv-x="456" 
d="M707 1645h-564l23 127h563zM45 0l254 1434h178l-254 -1434h-178z" />
    <glyph glyph-name="imacron" unicode="&#x12b;" horiz-adv-x="393" 
d="M610 1255h-563l23 127h563zM20 0l185 1044h168l-185 -1044h-168z" />
    <glyph glyph-name="Ibreve" unicode="&#x12c;" horiz-adv-x="456" 
d="M156 1835h131q0 -73 32 -112.5t93 -39.5q68 0 116 43.5t60 108.5h131q-26 -132 -110.5 -206.5t-205.5 -74.5q-124 0 -185.5 75.5t-61.5 205.5zM45 0l254 1434h178l-254 -1434h-178z" />
    <glyph glyph-name="ibreve" unicode="&#x12d;" horiz-adv-x="393" 
d="M59 1446h131q0 -73 32 -112.5t93 -39.5q68 0 116.5 43.5t60.5 108.5h131q-26 -132 -110.5 -206.5t-205.5 -74.5q-124 0 -186 75.5t-62 205.5zM20 0l185 1044h168l-185 -1044h-168z" />
    <glyph glyph-name="Iogonek" unicode="&#x12e;" horiz-adv-x="456" 
d="M477 1434l-254 -1434q-108 -53 -180 -114t-72 -109q0 -33 18.5 -48.5t63.5 -15.5h131l-20 -123h-154q-84 0 -134 41t-50 111q0 81 57.5 146.5t165.5 134.5l250 1411h178z" />
    <glyph glyph-name="iogonek" unicode="&#x12f;" horiz-adv-x="393" 
d="M346 1438q44 0 72 -28t28 -71q0 -51 -33.5 -84.5t-80.5 -33.5q-44 0 -73.5 27.5t-29.5 70.5q0 51 35 85t82 34zM27 29l178 1015h168l-185 -1044q-107 -53 -179 -114t-72 -109q0 -33 18 -48.5t63 -15.5h132l-21 -123h-154q-84 0 -134 41t-50 111q0 84 61.5 151t174.5 136z
" />
    <glyph glyph-name="Idotaccent" unicode="&#x130;" horiz-adv-x="456" 
d="M428 1610q-44 0 -73 27.5t-29 70.5q0 51 34.5 85t81.5 34q44 0 72.5 -27.5t28.5 -70.5q0 -51 -34 -85t-81 -34zM45 0l254 1434h178l-254 -1434h-178z" />
    <glyph glyph-name="dotlessi" unicode="&#x131;" horiz-adv-x="393" 
d="M20 0l185 1044h168l-185 -1044h-168z" />
    <glyph glyph-name="IJ" unicode="&#x132;" horiz-adv-x="1263" 
d="M133 528h178q-10 -68 -10 -112q0 -128 64.5 -196t187.5 -68q171 0 268.5 93t134.5 296l158 893h178l-159 -902q-50 -284 -192 -414t-390 -130q-209 0 -319.5 105.5t-110.5 303.5q0 61 12 131zM182 805l113 629h178l-113 -629h-178z" />
    <glyph glyph-name="ij" unicode="&#x133;" horiz-adv-x="798" 
d="M332 1221q-44 0 -73.5 27.5t-29.5 70.5q0 51 35 85t82 34q44 0 72 -28t28 -71q0 -51 -33.5 -84.5t-80.5 -33.5zM735 1221q-44 0 -73 27.5t-29 70.5q0 51 35 85t82 34q44 0 72 -28t28 -71q0 -51 -34 -84.5t-81 -33.5zM20 0l185 1044h168l-185 -1044h-168zM109 -410l26 154
h125q123 0 141 121l209 1179h168l-209 -1187q-25 -140 -97 -203.5t-216 -63.5h-147z" />
    <glyph glyph-name="Jcircumflex" unicode="&#x134;" horiz-adv-x="716" 
d="M854 1556l-141 168l-213 -168h-168l307 279h160l209 -279h-154zM369 354l190 1080h178l-194 -1102q-59 -332 -391 -332h-193l31 164h157q97 0 151 46.5t71 143.5z" />
    <glyph glyph-name="jcircumflex" unicode="&#x135;" horiz-adv-x="405" 
d="M506 1167l-141 168l-213 -168h-168l307 279h160l208 -279h-153zM-285 -410l27 154h125q123 0 141 121l209 1179h168l-209 -1187q-25 -140 -97 -203.5t-216 -63.5h-148z" />
    <glyph glyph-name="uni0136" unicode="&#x136;" horiz-adv-x="1318" 
d="M1184 1434h235l-637 -607l420 -827h-201l-360 700l-350 -327l-68 -373h-178l254 1434h178l-145 -799zM354 -397l152 293h168l-195 -293h-125z" />
    <glyph glyph-name="uni0137" unicode="&#x137;" horiz-adv-x="1042" 
d="M20 0l254 1434h168l-168 -930l607 540h225l-485 -428l319 -616h-186l-260 502l-256 -226l-50 -276h-168zM211 -397l151 293h168l-194 -293h-125z" />
    <glyph glyph-name="kgreenlandic" unicode="&#x138;" horiz-adv-x="1042" 
d="M20 0l189 1044h168l-103 -540l607 540h225l-485 -428l319 -616h-186l-260 502l-256 -226l-50 -276h-168z" />
    <glyph glyph-name="Lacute" unicode="&#x139;" horiz-adv-x="1009" 
d="M487 1559h-141l201 276h203zM877 0h-832l254 1434h178l-225 -1270h653z" />
    <glyph glyph-name="lacute" unicode="&#x13a;" horiz-adv-x="395" 
d="M455 1538h-142l201 277h203zM20 0l254 1434h168l-254 -1434h-168z" />
    <glyph glyph-name="uni013B" unicode="&#x13b;" horiz-adv-x="1009" 
d="M877 0h-832l254 1434h178l-225 -1270h653zM236 -397l151 293h168l-195 -293h-124z" />
    <glyph glyph-name="uni013C" unicode="&#x13c;" horiz-adv-x="395" 
d="M20 0l254 1434h168l-254 -1434h-168zM-154 -397l152 293h168l-195 -293h-125z" />
    <glyph glyph-name="Lcaron" unicode="&#x13d;" horiz-adv-x="1009" 
d="M877 0h-832l254 1434h178l-225 -1270h653zM549 1135l135 299h160l-170 -299h-125z" />
    <glyph glyph-name="lcaron" unicode="&#x13e;" horiz-adv-x="520" 
d="M20 0l254 1434h168l-254 -1434h-168zM473 1135l135 299h160l-170 -299h-125z" />
    <glyph glyph-name="Ldot" unicode="&#x13f;" horiz-adv-x="1019" 
d="M877 0h-832l254 1434h178l-225 -1270h653zM770 629q-44 0 -73 27.5t-29 70.5q0 51 34.5 85t81.5 34q44 0 72.5 -27.5t28.5 -70.5q0 -51 -34 -85t-81 -34z" />
    <glyph glyph-name="ldot" unicode="&#x140;" horiz-adv-x="598" 
d="M20 0l254 1434h168l-254 -1434h-168zM526 616q-44 0 -73 28t-29 71q0 51 35 85t82 34q44 0 72 -28t28 -71q0 -51 -34 -85t-81 -34z" />
    <glyph glyph-name="Lslash" unicode="&#x141;" horiz-adv-x="1054" 
d="M379 700l-94 -536h653l-29 -164h-831l104 596l-170 -92l27 160l172 92l121 678h178l-102 -574l307 164l-27 -160z" />
    <glyph glyph-name="lslash" unicode="&#x142;" horiz-adv-x="516" 
d="M408 907l172 88l-25 -157l-174 -90l-133 -748h-168l115 653l-172 -90l26 158l174 90l111 623h168z" />
    <glyph glyph-name="Nacute" unicode="&#x143;" horiz-adv-x="1386" 
d="M942 1559h-141l200 276h203zM219 0h-174l254 1434h145l586 -1127l203 1127h174l-254 -1434h-162l-575 1106z" />
    <glyph glyph-name="nacute" unicode="&#x144;" horiz-adv-x="1136" 
d="M791 1446h202l-262 -277h-141zM700 1057q160 0 259.5 -88t99.5 -264q0 -59 -12 -130l-103 -575h-168l101 567q12 70 12 123q0 100 -59 156.5t-168 56.5q-149 0 -248.5 -103.5t-132.5 -283.5l-93 -516h-168l185 1044h145l-2 -135q140 148 352 148z" />
    <glyph glyph-name="uni0145" unicode="&#x145;" horiz-adv-x="1386" 
d="M219 0h-174l254 1434h145l586 -1127l203 1127h174l-254 -1434h-162l-575 1106zM338 -397l151 293h168l-194 -293h-125z" />
    <glyph glyph-name="uni0146" unicode="&#x146;" horiz-adv-x="1136" 
d="M700 1057q160 0 259.5 -88t99.5 -264q0 -59 -12 -130l-103 -575h-168l101 567q12 70 12 123q0 100 -59 156.5t-168 56.5q-149 0 -248.5 -103.5t-132.5 -283.5l-93 -516h-168l185 1044h145l-2 -135q140 148 352 148zM356 -397h-125l152 293h168z" />
    <glyph glyph-name="Ncaron" unicode="&#x147;" horiz-adv-x="1386" 
d="M733 1835l139 -168l215 168h166l-307 -279h-160l-208 279h155zM219 0h-174l254 1434h145l586 -1127l203 1127h174l-254 -1434h-162l-575 1106z" />
    <glyph glyph-name="ncaron" unicode="&#x148;" horiz-adv-x="1136" 
d="M1042 1446l-307 -279h-160l-208 279h155l140 -168l215 168h165zM700 1057q160 0 259.5 -88t99.5 -264q0 -59 -12 -130l-103 -575h-168l101 567q12 70 12 123q0 100 -59 156.5t-168 56.5q-149 0 -248.5 -103.5t-132.5 -283.5l-93 -516h-168l185 1044h145l-2 -135
q140 148 352 148z" />
    <glyph glyph-name="napostrophe" unicode="&#x149;" horiz-adv-x="1497" 
d="M479 1276q0 -140 -93.5 -229.5t-242.5 -92.5l7 97q90 6 140 47t66 98q7 25 4 47q-20 -26 -65 -26q-44 0 -72 26t-28 72q0 57 39.5 94t105.5 37q65 0 102 -47.5t37 -122.5zM1061 1057q160 0 259 -88t99 -264q0 -59 -12 -130l-102 -575h-168l100 567q12 70 12 123
q0 100 -59 156.5t-168 56.5q-149 0 -248.5 -103.5t-132.5 -283.5l-92 -516h-168l184 1044h146l-2 -135q140 148 352 148z" />
    <glyph glyph-name="Eng" unicode="&#x14a;" horiz-adv-x="1386" 
d="M1030 307l203 1127h174l-279 -1571q-27 -146 -99 -209.5t-220 -63.5h-152l29 160h129q63 0 96.5 29.5t44.5 91.5l27 147l-567 1088l-197 -1106h-174l254 1434h145z" />
    <glyph glyph-name="eng" unicode="&#x14b;" horiz-adv-x="1136" 
d="M700 1057q160 0 259.5 -88t99.5 -264q0 -59 -12 -130l-127 -718q-25 -140 -97.5 -203.5t-216.5 -63.5h-157l26 154h135q121 0 142 121l125 702q12 70 12 123q0 100 -59 156.5t-168 56.5q-149 0 -248.5 -103.5t-132.5 -283.5l-93 -516h-168l185 1044h145l-2 -135
q140 148 352 148z" />
    <glyph glyph-name="Omacron" unicode="&#x14c;" horiz-adv-x="1529" 
d="M1223 1645h-564l23 127h563zM729 -12q-280 0 -448 173t-168 447q0 229 93.5 419.5t267.5 304.5t394 114q280 0 448.5 -173.5t168.5 -447.5q0 -171 -55.5 -324t-153 -266.5t-240 -180t-307.5 -66.5zM737 150q169 0 300 91.5t199.5 244.5t68.5 339q0 204 -120.5 331.5
t-324.5 127.5q-169 0 -300 -92t-199 -245t-68 -339q0 -204 120 -331t324 -127z" />
    <glyph glyph-name="omacron" unicode="&#x14d;" horiz-adv-x="1187" 
d="M1006 1255h-564l23 127h563zM528 -12q-202 0 -328 126.5t-126 323.5q0 175 76.5 317t210.5 222t298 80q202 0 328.5 -127t126.5 -324q0 -175 -77 -317t-211 -221.5t-298 -79.5zM543 137q179 0 290 134.5t111 326.5q0 137 -84 223t-215 86q-179 0 -290 -134.5t-111 -326.5
q0 -137 84 -223t215 -86z" />
    <glyph glyph-name="Obreve" unicode="&#x14e;" horiz-adv-x="1529" 
d="M672 1835h131q0 -73 32 -112.5t93 -39.5q68 0 116 43.5t60 108.5h131q-26 -133 -110 -207t-205 -74q-124 0 -186 75.5t-62 205.5zM729 -12q-280 0 -448 173t-168 447q0 229 93.5 419.5t267.5 304.5t394 114q280 0 448.5 -173.5t168.5 -447.5q0 -171 -55.5 -324
t-153 -266.5t-240 -180t-307.5 -66.5zM737 150q169 0 300 91.5t199.5 244.5t68.5 339q0 204 -120.5 331.5t-324.5 127.5q-169 0 -300 -92t-199 -245t-68 -339q0 -204 120 -331t324 -127z" />
    <glyph glyph-name="obreve" unicode="&#x14f;" horiz-adv-x="1187" 
d="M455 1446h131q0 -73 32 -112.5t93 -39.5q68 0 116 43.5t60 108.5h131q-26 -132 -110.5 -206.5t-205.5 -74.5q-124 0 -185.5 75.5t-61.5 205.5zM528 -12q-202 0 -328 126.5t-126 323.5q0 175 76.5 317t210.5 222t298 80q202 0 328.5 -127t126.5 -324q0 -175 -77 -317
t-211 -221.5t-298 -79.5zM543 137q179 0 290 134.5t111 326.5q0 137 -84 223t-215 86q-179 0 -290 -134.5t-111 -326.5q0 -137 84 -223t215 -86z" />
    <glyph glyph-name="Ohungarumlaut" unicode="&#x150;" horiz-adv-x="1529" 
d="M793 1554h-134l224 281h196zM1153 1554h-133l223 281h197zM729 -12q-280 0 -448 173t-168 447q0 229 93.5 419.5t267.5 304.5t394 114q280 0 448.5 -173.5t168.5 -447.5q0 -171 -55.5 -324t-153 -266.5t-240 -180t-307.5 -66.5zM737 150q169 0 300 91.5t199.5 244.5
t68.5 339q0 204 -120.5 331.5t-324.5 127.5q-169 0 -300 -92t-199 -245t-68 -339q0 -204 120 -331t324 -127z" />
    <glyph glyph-name="ohungarumlaut" unicode="&#x151;" horiz-adv-x="1187" 
d="M575 1165h-133l224 281h196zM936 1165h-133l223 281h197zM528 -12q-202 0 -328 126.5t-126 323.5q0 175 76.5 317t210.5 222t298 80q202 0 328.5 -127t126.5 -324q0 -175 -77 -317t-211 -221.5t-298 -79.5zM543 137q179 0 290 134.5t111 326.5q0 137 -84 223t-215 86
q-179 0 -290 -134.5t-111 -326.5q0 -137 84 -223t215 -86z" />
    <glyph glyph-name="OE" unicode="&#x152;" horiz-adv-x="2295" 
d="M2365 1434l-30 -164h-725l-80 -459h602l-29 -164h-602l-86 -483h752l-29 -164h-930l37 209q-205 -221 -540 -221q-167 0 -303.5 73.5t-216 209.5t-79.5 309q0 174 59 332.5t161.5 276.5t251.5 187.5t319 69.5q191 0 321.5 -74.5t194.5 -212.5l49 275h903zM719 152
q133 0 247.5 56.5t192 151t121 218.5t43.5 258q0 194 -117.5 320t-304.5 126q-134 0 -249.5 -56.5t-193.5 -151t-122.5 -219t-44.5 -259.5q0 -192 119.5 -318t308.5 -126z" />
    <glyph glyph-name="oe" unicode="&#x153;" horiz-adv-x="1982" 
d="M1896 483h-806q-3 -21 -3 -39q0 -128 79 -217.5t220 -89.5q120 0 191 54t117 159h170q-52 -175 -178.5 -268.5t-305.5 -93.5q-144 0 -245.5 60t-153.5 169q-74 -108 -189.5 -168.5t-261.5 -60.5q-202 0 -328 126.5t-126 323.5q0 177 73.5 318t207.5 221t305 80
q138 0 238 -60.5t151 -167.5q74 107 185.5 167.5t256.5 60.5q193 0 306.5 -111.5t113.5 -296.5q0 -91 -17 -166zM1473 909q-129 0 -224.5 -77.5t-128.5 -202.5h611q2 14 2 37q0 115 -69.5 179t-190.5 64zM539 137q120 0 214 63.5t143.5 168.5t49.5 229q0 137 -82.5 223
t-210.5 86q-120 0 -214 -63.5t-143.5 -168.5t-49.5 -229q0 -138 81 -223.5t212 -85.5z" />
    <glyph glyph-name="Racute" unicode="&#x154;" horiz-adv-x="1251" 
d="M879 1835h202l-262 -276h-141zM1245 1032q0 -185 -101 -305t-274 -158l205 -569h-196l-197 551h-360l-99 -551h-178l254 1434h506q209 0 324.5 -113t115.5 -289zM350 715h350q165 0 264 81.5t99 237.5q0 113 -73 174.5t-199 61.5h-345z" />
    <glyph glyph-name="racute" unicode="&#x155;" horiz-adv-x="684" 
d="M625 1446h202l-262 -277h-141zM350 1044l-4 -147q118 147 336 147h53l-28 -163h-78q-78 0 -141.5 -31.5t-104 -85t-65 -112.5t-37.5 -126l-93 -526h-168l185 1044h145z" />
    <glyph glyph-name="uni0156" unicode="&#x156;" horiz-adv-x="1251" 
d="M1245 1032q0 -185 -101 -305t-274 -158l205 -569h-196l-197 551h-360l-99 -551h-178l254 1434h506q209 0 324.5 -113t115.5 -289zM350 715h350q165 0 264 81.5t99 237.5q0 113 -73 174.5t-199 61.5h-345zM397 -397h-125l152 293h168z" />
    <glyph glyph-name="uni0157" unicode="&#x157;" horiz-adv-x="684" 
d="M682 1044h53l-28 -163h-78q-78 0 -141.5 -31.5t-104 -85t-65 -112.5t-37.5 -126l-93 -526h-168l185 1044h145l-4 -147q118 147 336 147zM-29 -397h-125l152 293h168z" />
    <glyph glyph-name="Rcaron" unicode="&#x158;" horiz-adv-x="1251" 
d="M1130 1835l-307 -279h-159l-209 279h155l140 -168l215 168h165zM1245 1032q0 -185 -101 -305t-274 -158l205 -569h-196l-197 551h-360l-99 -551h-178l254 1434h506q209 0 324.5 -113t115.5 -289zM350 715h350q165 0 264 81.5t99 237.5q0 113 -73 174.5t-199 61.5h-345z
" />
    <glyph glyph-name="rcaron" unicode="&#x159;" horiz-adv-x="684" 
d="M877 1446l-308 -279h-159l-209 279h155l140 -168l215 168h166zM350 1044l-4 -147q118 147 336 147h53l-28 -163h-78q-78 0 -141.5 -31.5t-104 -85t-65 -112.5t-37.5 -126l-93 -526h-168l185 1044h145z" />
    <glyph glyph-name="Sacute" unicode="&#x15a;" horiz-adv-x="1243" 
d="M852 1559h-141l200 276h203zM602 -12q-252 0 -389 128t-137 353h174q3 -106 51.5 -179.5t124 -106.5t172.5 -33q166 0 264.5 66.5t98.5 195.5q0 39 -16 71.5t-43 56t-70 44t-88.5 34.5t-106.5 29q-75 18 -135.5 38.5t-118.5 52.5t-96.5 70.5t-62 93.5t-23.5 120
q0 104 40.5 186t112.5 133.5t168.5 78t212.5 26.5q225 0 353 -117.5t131 -306.5h-175q-6 119 -93 190.5t-228 71.5q-159 0 -251.5 -64t-92.5 -188q0 -47 23 -83.5t69 -63t99 -45t130 -37.5q75 -18 135 -38.5t119 -52.5t98.5 -70.5t64 -93.5t24.5 -120q0 -210 -147.5 -325
t-391.5 -115z" />
    <glyph glyph-name="sacute" unicode="&#x15b;" horiz-adv-x="991" 
d="M668 1169h-142l201 277h203zM541 1057q180 0 287.5 -85t107.5 -247h-166q-3 86 -65.5 137t-165.5 51q-116 0 -183 -42t-67 -109q0 -64 56.5 -97t164.5 -53q93 -16 157 -37t116 -53.5t77 -81t25 -114.5q0 -83 -34 -148.5t-94 -106t-137.5 -62t-168.5 -21.5q-184 0 -302 97
t-118 259h166q8 -102 74.5 -157.5t181.5 -55.5q124 0 194 46t70 128q0 61 -58 96t-167 54q-91 16 -154.5 36t-115 53t-76.5 83t-25 118q0 148 117.5 230t302.5 82z" />
    <glyph glyph-name="Scircumflex" unicode="&#x15c;" horiz-adv-x="1243" 
d="M956 1556l-141 168l-213 -168h-168l307 279h160l209 -279h-154zM602 -12q-252 0 -389 128t-137 353h174q3 -106 51.5 -179.5t124 -106.5t172.5 -33q166 0 264.5 66.5t98.5 195.5q0 39 -16 71.5t-43 56t-70 44t-88.5 34.5t-106.5 29q-75 18 -135.5 38.5t-118.5 52.5
t-96.5 70.5t-62 93.5t-23.5 120q0 104 40.5 186t112.5 133.5t168.5 78t212.5 26.5q225 0 353 -117.5t131 -306.5h-175q-6 119 -93 190.5t-228 71.5q-159 0 -251.5 -64t-92.5 -188q0 -47 23 -83.5t69 -63t99 -45t130 -37.5q75 -18 135 -38.5t119 -52.5t98.5 -70.5t64 -93.5
t24.5 -120q0 -210 -147.5 -325t-391.5 -115z" />
    <glyph glyph-name="scircumflex" unicode="&#x15d;" horiz-adv-x="991" 
d="M772 1167l-141 168l-213 -168h-168l307 279h160l209 -279h-154zM541 1057q180 0 287.5 -85t107.5 -247h-166q-3 86 -65.5 137t-165.5 51q-116 0 -183 -42t-67 -109q0 -64 56.5 -97t164.5 -53q93 -16 157 -37t116 -53.5t77 -81t25 -114.5q0 -83 -34 -148.5t-94 -106
t-137.5 -62t-168.5 -21.5q-184 0 -302 97t-118 259h166q8 -102 74.5 -157.5t181.5 -55.5q124 0 194 46t70 128q0 61 -58 96t-167 54q-91 16 -154.5 36t-115 53t-76.5 83t-25 118q0 148 117.5 230t302.5 82z" />
    <glyph glyph-name="Scedilla" unicode="&#x15e;" horiz-adv-x="1243" 
d="M700 803q75 -18 135 -38.5t119 -52.5t98.5 -70.5t64 -93.5t24.5 -120q0 -208 -144 -322.5t-385 -117.5l-28 -74h16q66 0 110 -37.5t44 -97.5q0 -83 -61.5 -136t-151.5 -53h-170l16 103h133q105 0 105 67q0 56 -70 56h-109l68 176q-211 22 -324.5 147.5t-113.5 329.5h174
q3 -106 51.5 -179.5t124 -106.5t172.5 -33q166 0 264.5 66.5t98.5 195.5q0 39 -16 71.5t-43 56t-70 44t-88.5 34.5t-106.5 29q-75 18 -135.5 38.5t-118.5 52.5t-96.5 70.5t-62 93.5t-23.5 120q0 104 40.5 186t112.5 133.5t168.5 78t212.5 26.5q225 0 353 -117.5t131 -306.5
h-175q-6 119 -93 190.5t-228 71.5q-159 0 -251.5 -64t-92.5 -188q0 -47 23 -83.5t69 -63t99 -45t130 -37.5z" />
    <glyph glyph-name="scedilla" unicode="&#x15f;" horiz-adv-x="991" 
d="M510 612q93 -16 157 -37t116 -53.5t77 -81t25 -114.5q0 -149 -104 -235.5t-269 -100.5l-31 -76h17q66 0 109.5 -37.5t43.5 -97.5q0 -83 -61.5 -136t-151.5 -53h-170l17 103h133q104 0 104 67q0 56 -69 56h-109l68 174q-169 9 -275 105t-106 249h166q8 -102 74.5 -157.5
t181.5 -55.5q124 0 194 46t70 128q0 61 -58 96t-167 54q-91 16 -154.5 36t-115 53t-76.5 83t-25 118q0 148 117.5 230t302.5 82q180 0 287.5 -85t107.5 -247h-166q-3 86 -65.5 137t-165.5 51q-116 0 -183 -42t-67 -109q0 -64 56.5 -97t164.5 -53z" />
    <glyph glyph-name="Scaron" unicode="&#x160;" horiz-adv-x="1243" 
d="M643 1835l139 -168l215 168h166l-307 -279h-160l-209 279h156zM602 -12q-252 0 -389 128t-137 353h174q3 -106 51.5 -179.5t124 -106.5t172.5 -33q166 0 264.5 66.5t98.5 195.5q0 39 -16 71.5t-43 56t-70 44t-88.5 34.5t-106.5 29q-75 18 -135.5 38.5t-118.5 52.5
t-96.5 70.5t-62 93.5t-23.5 120q0 104 40.5 186t112.5 133.5t168.5 78t212.5 26.5q225 0 353 -117.5t131 -306.5h-175q-6 119 -93 190.5t-228 71.5q-159 0 -251.5 -64t-92.5 -188q0 -47 23 -83.5t69 -63t99 -45t130 -37.5q75 -18 135 -38.5t119 -52.5t98.5 -70.5t64 -93.5
t24.5 -120q0 -210 -147.5 -325t-391.5 -115z" />
    <glyph glyph-name="scaron" unicode="&#x161;" horiz-adv-x="991" 
d="M459 1446l139 -168l215 168h166l-307 -279h-160l-209 279h156zM541 1057q180 0 287.5 -85t107.5 -247h-166q-3 86 -65.5 137t-165.5 51q-116 0 -183 -42t-67 -109q0 -64 56.5 -97t164.5 -53q93 -16 157 -37t116 -53.5t77 -81t25 -114.5q0 -83 -34 -148.5t-94 -106
t-137.5 -62t-168.5 -21.5q-184 0 -302 97t-118 259h166q8 -102 74.5 -157.5t181.5 -55.5q124 0 194 46t70 128q0 61 -58 96t-167 54q-91 16 -154.5 36t-115 53t-76.5 83t-25 118q0 148 117.5 230t302.5 82z" />
    <glyph glyph-name="uni0162" unicode="&#x162;" horiz-adv-x="1191" 
d="M172 1270l31 164h1108l-31 -164h-465l-223 -1270h-178l223 1270h-465zM246 -397l151 293h168l-194 -293h-125z" />
    <glyph glyph-name="uni0163" unicode="&#x163;" horiz-adv-x="677" 
d="M690 891h-264l-111 -623q-4 -32 -4 -43q0 -39 21.5 -55t73.5 -16h176l-27 -154h-170l-35 -86h17q66 0 109.5 -37.5t43.5 -97.5q0 -83 -61.5 -136t-151.5 -53h-170l17 103h133q104 0 104 67q0 56 -69 56h-109l76 192q-148 29 -148 187q0 16 15 112l102 584h-188l26 153
h189l51 293h168l-51 -293h264z" />
    <glyph glyph-name="Tcaron" unicode="&#x164;" horiz-adv-x="1191" 
d="M653 1835l140 -168l215 168h166l-308 -279h-159l-209 279h155zM172 1270l31 164h1108l-31 -164h-465l-223 -1270h-178l223 1270h-465z" />
    <glyph glyph-name="tcaron" unicode="&#x165;" horiz-adv-x="677" 
d="M571 1161l136 299h159l-170 -299h-125zM156 307l102 584h-188l26 153h189l51 293h168l-51 -293h264l-27 -153h-264l-111 -623q-4 -32 -4 -43q0 -39 21.5 -55t73.5 -16h176l-27 -154h-176q-124 0 -181 48.5t-57 146.5q0 16 15 112z" />
    <glyph glyph-name="Tbar" unicode="&#x166;" horiz-adv-x="1210" 
d="M1311 1434l-31 -164h-465l-88 -500h250l-27 -152h-250l-108 -618h-178l108 618h-233l26 152h234l88 500h-465l31 164h1108z" />
    <glyph glyph-name="tbar" unicode="&#x167;" horiz-adv-x="700" 
d="M715 1044l-27 -153h-264l-43 -246h264l-27 -143h-264l-41 -234q-4 -32 -4 -43q0 -39 21.5 -55t72.5 -16h187l-27 -154h-186q-124 0 -181 48.5t-57 146.5q0 43 8 84l39 223h-188l27 143h188l43 246h-188l26 153h189l51 293h168l-51 -293h264z" />
    <glyph glyph-name="Utilde" unicode="&#x168;" horiz-adv-x="1357" 
d="M782 1833q39 0 68 -12t46.5 -29.5t31.5 -34.5t31 -29t38 -12q73 0 90 111h115q-20 -113 -73 -171.5t-130 -58.5q-48 0 -83 18.5t-50.5 40t-38 40t-49.5 18.5q-68 0 -90 -108h-115q20 111 75 169t134 58zM147 618l146 816h178l-149 -838q-13 -76 -13 -129
q0 -156 82 -235.5t236 -79.5q187 0 290 113.5t144 342.5l147 826h178l-147 -828q-55 -305 -200.5 -461.5t-415.5 -156.5q-235 0 -363.5 119.5t-128.5 345.5q0 71 16 165z" />
    <glyph glyph-name="utilde" unicode="&#x169;" horiz-adv-x="1114" 
d="M573 1325q-68 0 -90 -108h-114q20 111 75 169t134 58q39 0 68 -12t46.5 -29.5t31.5 -34.5t31 -29t38 -12q73 0 90 111h114q-20 -113 -72.5 -171.5t-129.5 -58.5q-48 0 -83 18.5t-51 40t-38.5 40t-49.5 18.5zM836 528l90 516h168l-185 -1044h-143v131q-139 -143 -342 -143
q-156 0 -251 82.5t-95 248.5q0 70 14 152l101 573h167l-100 -575q-12 -74 -12 -127q0 -98 52.5 -149.5t156.5 -51.5q145 0 246.5 104.5t132.5 282.5z" />
    <glyph glyph-name="Umacron" unicode="&#x16a;" horiz-adv-x="1357" 
d="M1161 1645h-563l23 127h563zM147 618l146 816h178l-149 -838q-13 -76 -13 -129q0 -156 82 -235.5t236 -79.5q187 0 290 113.5t144 342.5l147 826h178l-147 -828q-55 -305 -200.5 -461.5t-415.5 -156.5q-235 0 -363.5 119.5t-128.5 345.5q0 71 16 165z" />
    <glyph glyph-name="umacron" unicode="&#x16b;" horiz-adv-x="1114" 
d="M416 1382h563l-23 -127h-563zM836 528l90 516h168l-185 -1044h-143v131q-139 -143 -342 -143q-156 0 -251 82.5t-95 248.5q0 70 14 152l101 573h167l-100 -575q-12 -74 -12 -127q0 -98 52.5 -149.5t156.5 -51.5q145 0 246.5 104.5t132.5 282.5z" />
    <glyph glyph-name="Ubreve" unicode="&#x16c;" horiz-adv-x="1357" 
d="M610 1835h131q0 -73 32 -112.5t93 -39.5q68 0 116 43.5t60 108.5h132q-26 -132 -110.5 -206.5t-205.5 -74.5q-124 0 -186 75.5t-62 205.5zM147 618l146 816h178l-149 -838q-13 -76 -13 -129q0 -156 82 -235.5t236 -79.5q187 0 290 113.5t144 342.5l147 826h178l-147 -828
q-55 -305 -200.5 -461.5t-415.5 -156.5q-235 0 -363.5 119.5t-128.5 345.5q0 71 16 165z" />
    <glyph glyph-name="ubreve" unicode="&#x16d;" horiz-adv-x="1114" 
d="M653 1165q-124 0 -185.5 75.5t-61.5 205.5h131q0 -73 32 -112.5t93 -39.5q68 0 116 43.5t60 108.5h131q-26 -132 -110.5 -206.5t-205.5 -74.5zM836 528l90 516h168l-185 -1044h-143v131q-139 -143 -342 -143q-156 0 -251 82.5t-95 248.5q0 70 14 152l101 573h167
l-100 -575q-12 -74 -12 -127q0 -98 52.5 -149.5t156.5 -51.5q145 0 246.5 104.5t132.5 282.5z" />
    <glyph glyph-name="Uring" unicode="&#x16e;" horiz-adv-x="1357" 
d="M600 1595q0 94 69.5 161t168.5 67t168 -67t69 -161q0 -96 -69 -162.5t-168 -66.5q-100 0 -169 67t-69 162zM967 1595q0 57 -37.5 94t-91.5 37t-91.5 -37t-37.5 -94q0 -58 37 -95.5t92 -37.5t92 37.5t37 95.5zM147 618l146 816h178l-149 -838q-13 -76 -13 -129
q0 -156 82 -235.5t236 -79.5q187 0 290 113.5t144 342.5l147 826h178l-147 -828q-55 -305 -200.5 -461.5t-415.5 -156.5q-235 0 -363.5 119.5t-128.5 345.5q0 71 16 165z" />
    <glyph glyph-name="uring" unicode="&#x16f;" horiz-adv-x="1114" 
d="M696 1141q-99 0 -168 66.5t-69 162.5q0 94 69 160.5t168 66.5t168.5 -66.5t69.5 -160.5q0 -95 -69 -162t-169 -67zM696 1501q-54 0 -91.5 -37.5t-37.5 -93.5q0 -58 37 -95.5t92 -37.5t92 37.5t37 95.5q0 56 -37.5 93.5t-91.5 37.5zM836 528l90 516h168l-185 -1044h-143
v131q-139 -143 -342 -143q-156 0 -251 82.5t-95 248.5q0 70 14 152l101 573h167l-100 -575q-12 -74 -12 -127q0 -98 52.5 -149.5t156.5 -51.5q145 0 246.5 104.5t132.5 282.5z" />
    <glyph glyph-name="Uhungarumlaut" unicode="&#x170;" horiz-adv-x="1357" 
d="M731 1554h-133l223 281h197zM1092 1554h-134l224 281h196zM147 618l146 816h178l-149 -838q-13 -76 -13 -129q0 -156 82 -235.5t236 -79.5q187 0 290 113.5t144 342.5l147 826h178l-147 -828q-55 -305 -200.5 -461.5t-415.5 -156.5q-235 0 -363.5 119.5t-128.5 345.5
q0 71 16 165z" />
    <glyph glyph-name="uhungarumlaut" unicode="&#x171;" horiz-adv-x="1114" 
d="M616 1446h197l-287 -281h-133zM1174 1446l-287 -281h-133l223 281h197zM836 528l90 516h168l-185 -1044h-143v131q-139 -143 -342 -143q-156 0 -251 82.5t-95 248.5q0 70 14 152l101 573h167l-100 -575q-12 -74 -12 -127q0 -98 52.5 -149.5t156.5 -51.5
q145 0 246.5 104.5t132.5 282.5z" />
    <glyph glyph-name="Uogonek" unicode="&#x172;" horiz-adv-x="1357" 
d="M811 -410h-154q-84 0 -134 41t-50 111q0 125 162 246h-21q-226 0 -354.5 120.5t-128.5 344.5q0 71 16 165l146 816h178l-149 -838q-13 -76 -13 -129q0 -156 82 -235.5t236 -79.5q187 0 290 113.5t144 342.5l147 826h178l-147 -828q-32 -180 -113.5 -324t-205.5 -225
q-20 -13 -56 -36.5t-53.5 -34.5t-46.5 -31t-43 -31t-34.5 -28t-30 -29.5t-20 -28t-14.5 -30.5t-4 -31q0 -33 18.5 -48.5t63.5 -15.5h131z" />
    <glyph glyph-name="uogonek" unicode="&#x173;" horiz-adv-x="1114" 
d="M1094 1044l-185 -1044q-108 -53 -180 -114t-72 -109q0 -33 18.5 -48.5t63.5 -15.5h131l-20 -123h-154q-84 0 -134 41t-50 111q0 87 65.5 156t188.5 143v90q-139 -143 -342 -143q-156 0 -251 82.5t-95 248.5q0 70 14 152l101 573h167l-100 -575q-12 -74 -12 -127
q0 -98 52.5 -149.5t156.5 -51.5q145 0 246.5 104.5t132.5 282.5l90 516h168z" />
    <glyph glyph-name="Wcircumflex" unicode="&#x174;" horiz-adv-x="1966" 
d="M1348 1556l-142 168l-213 -168h-168l308 279h159l209 -279h-153zM352 0l-159 1434h184l115 -1205l563 1205h180l121 -1205l547 1205h190l-666 -1434h-217l-123 1137l-522 -1137h-213z" />
    <glyph glyph-name="wcircumflex" unicode="&#x175;" horiz-adv-x="1601" 
d="M1100 1167l-142 168l-213 -168h-167l307 279h159l209 -279h-153zM262 0l-153 1044h172l108 -849l426 849h156l108 -849l420 849h178l-532 -1044h-184l-115 776l-400 -776h-184z" />
    <glyph glyph-name="Ycircumflex" unicode="&#x176;" horiz-adv-x="1292" 
d="M1004 1556l-142 168l-213 -168h-168l307 279h160l209 -279h-153zM672 707l555 727h207l-701 -904l-100 -530h-170l96 530l-381 904h187z" />
    <glyph glyph-name="ycircumflex" unicode="&#x177;" horiz-adv-x="1009" 
d="M797 1167l-142 168l-213 -168h-168l308 279h159l209 -279h-153zM319 -8l-217 1052h170l166 -849l471 849h183l-699 -1226q-41 -72 -65.5 -108t-58 -67.5t-71 -42t-92.5 -10.5h-206l26 154h144q70 0 106 26t78 103z" />
    <glyph glyph-name="Ydieresis" unicode="&#x178;" horiz-adv-x="1292" 
d="M666 1806q44 0 72 -26t28 -66q0 -50 -33 -82.5t-80 -32.5q-44 0 -72 27t-28 68q0 49 32.5 80.5t80.5 31.5zM1034 1806q44 0 72.5 -26t28.5 -66q0 -50 -33 -82.5t-80 -32.5q-44 0 -72 27t-28 68q0 49 32 80.5t80 31.5zM672 707l555 727h207l-701 -904l-100 -530h-170
l96 530l-381 904h187z" />
    <glyph glyph-name="Zacute" unicode="&#x179;" horiz-adv-x="1214" 
d="M881 1559h-142l201 276h203zM211 1270l31 164h1054l-20 -129l-1045 -1141h869l-29 -164h-1110l21 129l1044 1141h-815z" />
    <glyph glyph-name="zacute" unicode="&#x17a;" horiz-adv-x="960" 
d="M678 1169h-141l200 277h203zM137 891l27 153h819l-20 -126l-758 -764h647l-27 -154h-872l20 127l756 764h-592z" />
    <glyph glyph-name="Zdotaccent" unicode="&#x17b;" horiz-adv-x="1214" 
d="M821 1610q-44 0 -73 27.5t-29 70.5q0 51 35 85t82 34q44 0 72 -27.5t28 -70.5q0 -51 -34 -85t-81 -34zM211 1270l31 164h1054l-20 -129l-1045 -1141h869l-29 -164h-1110l21 129l1044 1141h-815z" />
    <glyph glyph-name="zdotaccent" unicode="&#x17c;" horiz-adv-x="960" 
d="M618 1221q-44 0 -73 27.5t-29 70.5q0 51 35 85t82 34q44 0 72 -28t28 -71q0 -51 -34 -84.5t-81 -33.5zM137 891l27 153h819l-20 -126l-758 -764h647l-27 -154h-872l20 127l756 764h-592z" />
    <glyph glyph-name="Zcaron" unicode="&#x17d;" horiz-adv-x="1214" 
d="M672 1835l139 -168l215 168h166l-307 -279h-160l-209 279h156zM211 1270l31 164h1054l-20 -129l-1045 -1141h869l-29 -164h-1110l21 129l1044 1141h-815z" />
    <glyph glyph-name="zcaron" unicode="&#x17e;" horiz-adv-x="960" 
d="M469 1446l139 -168l215 168h166l-307 -279h-160l-209 279h156zM137 891l27 153h819l-20 -126l-758 -764h647l-27 -154h-872l20 127l756 764h-592z" />
    <glyph glyph-name="florin" unicode="&#x192;" horiz-adv-x="989" 
d="M895 1434h211l-29 -154h-172q-137 0 -172 -139l-98 -377h246l-27 -154h-260l-156 -590q-32 -121 -110 -179t-209 -58h-209l29 154h172q134 0 172 139l141 534h-236l27 154h248l115 432q32 122 109.5 180t207.5 58z" />
    <glyph glyph-name="AEacute" unicode="&#x1fc;" horiz-adv-x="1976" 
d="M1415 1835h203l-262 -276h-142zM2046 1434l-31 -164h-725l-80 -459h602l-28 -164h-602l-86 -483h751l-28 -164h-930l63 362h-542l-291 -362h-211l1120 1434h1018zM520 518h461l135 760z" />
    <glyph glyph-name="aeacute" unicode="&#x1fd;" horiz-adv-x="1875" 
d="M1098 1157h-142l201 277h203zM311 731h-172q94 326 479 326q126 0 219.5 -45t133.5 -131q158 176 415 176q193 0 306.5 -111.5t113.5 -296.5q0 -95 -16 -166h-807q-2 -14 -2 -39q0 -128 79 -217.5t220 -89.5q82 0 142.5 27.5t97 72t67.5 113.5h170q-52 -175 -178 -268.5
t-305 -93.5q-144 0 -252.5 63t-163.5 174q-55 -111 -184.5 -174t-270.5 -63q-173 0 -273.5 73.5t-100.5 208.5q0 90 34.5 157.5t98.5 109t148.5 61.5t189.5 20h311l10 56q6 48 6 67q0 78 -61 122t-166 44q-121 0 -189.5 -45.5t-99.5 -130.5zM1366 909q-129 0 -224 -77.5
t-128 -202.5h610q2 14 2 37q0 115 -69.5 179t-190.5 64zM778 432l8 45h-317q-125 0 -196.5 -48t-71.5 -144q0 -75 54.5 -114.5t147.5 -39.5q156 0 253.5 82.5t121.5 218.5z" />
    <glyph glyph-name="uni0218" unicode="&#x218;" horiz-adv-x="1243" 
d="M602 -12q-252 0 -389 128t-137 353h174q3 -106 51.5 -179.5t124 -106.5t172.5 -33q166 0 264.5 66.5t98.5 195.5q0 39 -16 71.5t-43 56t-70 44t-88.5 34.5t-106.5 29q-75 18 -135.5 38.5t-118.5 52.5t-96.5 70.5t-62 93.5t-23.5 120q0 104 40.5 186t112.5 133.5t168.5 78
t212.5 26.5q225 0 353 -117.5t131 -306.5h-175q-6 119 -93 190.5t-228 71.5q-159 0 -251.5 -64t-92.5 -188q0 -47 23 -83.5t69 -63t99 -45t130 -37.5q75 -18 135 -38.5t119 -52.5t98.5 -70.5t64 -93.5t24.5 -120q0 -210 -147.5 -325t-391.5 -115zM305 -397l152 293h168
l-195 -293h-125z" />
    <glyph glyph-name="uni0219" unicode="&#x219;" horiz-adv-x="991" 
d="M541 1057q180 0 287.5 -85t107.5 -247h-166q-3 86 -65.5 137t-165.5 51q-116 0 -183 -42t-67 -109q0 -64 56.5 -97t164.5 -53q93 -16 157 -37t116 -53.5t77 -81t25 -114.5q0 -83 -34 -148.5t-94 -106t-137.5 -62t-168.5 -21.5q-184 0 -302 97t-118 259h166
q8 -102 74.5 -157.5t181.5 -55.5q124 0 194 46t70 128q0 61 -58 96t-167 54q-91 16 -154.5 36t-115 53t-76.5 83t-25 118q0 148 117.5 230t302.5 82zM203 -397l151 293h168l-194 -293h-125z" />
    <glyph glyph-name="uni021A" unicode="&#x21a;" horiz-adv-x="1191" 
d="M172 1270l31 164h1108l-31 -164h-465l-223 -1270h-33l-35 -86h17q66 0 109.5 -37.5t43.5 -97.5q0 -83 -61.5 -136t-151.5 -53h-170l17 103h133q104 0 104 67q0 56 -69 56h-109l72 184h-45l223 1270h-465z" />
    <glyph glyph-name="uni021B" unicode="&#x21b;" horiz-adv-x="677" 
d="M156 307l102 584h-188l26 153h189l51 293h168l-51 -293h264l-27 -153h-264l-111 -623q-4 -32 -4 -43q0 -39 21.5 -55t73.5 -16h176l-27 -154h-176q-124 0 -181 48.5t-57 146.5q0 16 15 112zM72 -397l151 293h168l-194 -293h-125z" />
    <glyph glyph-name="uni0237" unicode="&#x237;" horiz-adv-x="405" 
d="M-285 -410l27 154h125q123 0 141 121l209 1179h168l-209 -1187q-25 -140 -97 -203.5t-216 -63.5h-148z" />
    <glyph glyph-name="uni02BC" unicode="&#x2bc;" horiz-adv-x="692" 
d="M332 1135l135 299h160l-170 -299h-125z" />
    <glyph glyph-name="circumflex" unicode="&#x2c6;" horiz-adv-x="819" 
d="M702 1155l-141 168l-213 -168h-168l307 279h160l209 -279h-154z" />
    <glyph glyph-name="caron" unicode="&#x2c7;" horiz-adv-x="819" 
d="M389 1434l139 -168l215 168h166l-307 -279h-160l-209 279h156z" />
    <glyph glyph-name="breve" unicode="&#x2d8;" horiz-adv-x="819" 
d="M266 1434h131q0 -73 32 -112.5t93 -39.5q68 0 116 43.5t60 108.5h131q-26 -133 -110 -207t-205 -74q-124 0 -186 75.5t-62 205.5z" />
    <glyph glyph-name="dotaccent" unicode="&#x2d9;" horiz-adv-x="819" 
d="M539 1208q-44 0 -73.5 28t-29.5 71q0 51 35 84.5t82 33.5q44 0 72 -27.5t28 -70.5q0 -51 -33.5 -85t-80.5 -34z" />
    <glyph glyph-name="ring" unicode="&#x2da;" horiz-adv-x="819" 
d="M319 1358q0 94 69.5 160.5t168.5 66.5t168.5 -66.5t69.5 -160.5q0 -96 -69.5 -163t-168.5 -67t-168.5 67t-69.5 163zM686 1358q0 56 -37 93.5t-92 37.5t-92 -37.5t-37 -93.5q0 -58 37 -95.5t92 -37.5t92 37.5t37 95.5z" />
    <glyph glyph-name="ogonek" unicode="&#x2db;" horiz-adv-x="819" 
d="M-82 -258q0 87 66 155.5t190 145.5l141 -43q-108 -53 -180 -114t-72 -109q0 -33 18.5 -48.5t63.5 -15.5h131l-20 -123h-154q-84 0 -134 41t-50 111z" />
    <glyph glyph-name="tilde" unicode="&#x2dc;" horiz-adv-x="819" 
d="M438 1432q39 0 68 -12t46.5 -29.5t31.5 -34.5t31 -29t38 -12q73 0 90 110h115q-20 -113 -73 -171t-130 -58q-48 0 -83 18.5t-50.5 40t-38 40t-49.5 18.5q-68 0 -90 -109h-115q20 111 75.5 169.5t133.5 58.5z" />
    <glyph glyph-name="hungarumlaut" unicode="&#x2dd;" horiz-adv-x="827" 
d="M387 1153h-133l223 281h197zM748 1153h-134l224 281h196z" />
    <glyph glyph-name="gravecomb" unicode="&#x300;" horiz-adv-x="0" 
d="M-362 1155l-189 279h191l124 -279h-126z" />
    <glyph glyph-name="acutecomb" unicode="&#x301;" horiz-adv-x="0" 
d="M-221 1157h-141l200 277h203z" />
    <glyph glyph-name="uni0302" unicode="&#x302;" horiz-adv-x="0" 
d="M-117 1155l-141 168l-213 -168h-168l307 279h160l209 -279h-154z" />
    <glyph glyph-name="tildecomb" unicode="&#x303;" horiz-adv-x="0" 
d="M-381 1432q39 0 68 -12t46.5 -29.5t31.5 -34.5t31 -29t38 -12q73 0 90 110h115q-20 -113 -73 -171t-130 -58q-48 0 -83 18.5t-50.5 40t-38 40t-49.5 18.5q-68 0 -90 -109h-115q20 111 75.5 169.5t133.5 58.5z" />
    <glyph glyph-name="uni0304" unicode="&#x304;" horiz-adv-x="0" 
d="M-2 1243h-563l22 127h563z" />
    <glyph glyph-name="uni0306" unicode="&#x306;" horiz-adv-x="0" 
d="M-553 1434h131q0 -73 32 -112.5t93 -39.5q68 0 116 43.5t60 108.5h131q-26 -133 -110 -207t-205 -74q-124 0 -186 75.5t-62 205.5z" />
    <glyph glyph-name="uni0307" unicode="&#x307;" horiz-adv-x="0" 
d="M-281 1208q-44 0 -73 28t-29 71q0 51 35 84.5t82 33.5q44 0 72 -27.5t28 -70.5q0 -51 -34 -85t-81 -34z" />
    <glyph glyph-name="uni0308" unicode="&#x308;" horiz-adv-x="0" 
d="M-453 1405q44 0 72.5 -26t28.5 -66q0 -50 -33 -82.5t-80 -32.5q-44 0 -72 26.5t-28 67.5q0 49 32 81t80 32zM-84 1405q44 0 72 -26t28 -66q0 -50 -32.5 -82.5t-79.5 -32.5q-44 0 -72.5 26.5t-28.5 67.5q0 49 32.5 81t80.5 32z" />
    <glyph glyph-name="uni030A" unicode="&#x30a;" horiz-adv-x="0" 
d="M-500 1358q0 94 69.5 160.5t168.5 66.5t168 -66.5t69 -160.5q0 -96 -69 -163t-168 -67t-168.5 67t-69.5 163zM-133 1358q0 56 -37.5 93.5t-91.5 37.5t-91.5 -37.5t-37.5 -93.5q0 -58 37 -95.5t92 -37.5t92 37.5t37 95.5z" />
    <glyph glyph-name="uni030B" unicode="&#x30b;" horiz-adv-x="0" 
d="M-432 1153h-133l223 281h197zM-72 1153h-133l223 281h197z" />
    <glyph glyph-name="uni030C" unicode="&#x30c;" horiz-adv-x="0" 
d="M-430 1434l139 -168l215 168h166l-307 -279h-160l-209 279h156z" />
    <glyph glyph-name="uni0312" unicode="&#x312;" horiz-adv-x="0" 
d="M-84 1434l-152 -293h-167l188 293h131z" />
    <glyph glyph-name="uni0326" unicode="&#x326;" horiz-adv-x="0" 
d="M-762 -397l152 293h168l-195 -293h-125z" />
    <glyph glyph-name="uni0327" unicode="&#x327;" horiz-adv-x="0" 
d="M-621 -184l86 221h101l-49 -123h16q66 0 110 -37.5t44 -97.5q0 -83 -61.5 -136t-151.5 -53h-170l16 103h133q105 0 105 67q0 56 -70 56h-109z" />
    <glyph glyph-name="uni0328" unicode="&#x328;" horiz-adv-x="0" 
d="M-901 -258q0 87 66 155.5t190 145.5l141 -43q-108 -53 -180 -114t-72 -109q0 -33 18.5 -48.5t63.5 -15.5h131l-20 -123h-154q-84 0 -134 41t-50 111z" />
    <glyph glyph-name="uni0374" unicode="&#x374;" horiz-adv-x="393" 
d="M203 1022h-115l78 412h180z" />
    <glyph glyph-name="uni0375" unicode="&#x375;" horiz-adv-x="393" 
d="M164 2h115l-78 -412h-181z" />
    <glyph glyph-name="uni037E" unicode="&#x37e;" horiz-adv-x="421" 
d="M256 983q46 0 74 -27t28 -71q0 -56 -39.5 -93.5t-93.5 -35.5q-46 2 -73 29t-27 71q0 55 39 91t92 36zM123 215q65 0 102 -47.5t37 -122.5q0 -140 -93.5 -229t-242.5 -92l6 96q90 6 140.5 47t66.5 98q7 25 4 47q-20 -26 -65 -26q-44 0 -72.5 26t-28.5 72q0 57 40 94
t106 37z" />
    <glyph glyph-name="tonos" unicode="&#x384;" horiz-adv-x="819" 
d="M506 1157h-117l98 297h183z" />
    <glyph glyph-name="dieresistonos" unicode="&#x385;" horiz-adv-x="1210" 
d="M592 1161h-117l49 312h168zM324 1208q-41 0 -66 24t-25 62q0 47 29 76t74 29q41 0 65.5 -23.5t24.5 -62.5q0 -47 -28.5 -76t-73.5 -29zM791 1208q-41 0 -66 24t-25 62q0 47 29 76t74 29q41 0 65.5 -23.5t24.5 -62.5q0 -47 -28.5 -76t-73.5 -29z" />
    <glyph glyph-name="Alphatonos" unicode="&#x386;" horiz-adv-x="1329" 
d="M1217 0h-179l-75 387h-629l-211 -387h-195l795 1434h209zM356 1137h-116l98 297h182zM799 1237l-377 -688h510z" />
    <glyph glyph-name="anoteleia" unicode="&#x387;" horiz-adv-x="421" 
d="M233 696q46 0 74.5 -27t28.5 -71q0 -56 -39.5 -93.5t-93.5 -35.5q-46 2 -73.5 29t-27.5 71q0 55 39 91t92 36z" />
    <glyph glyph-name="Epsilontonos" unicode="&#x388;" horiz-adv-x="1275" 
d="M188 1137h-116l98 297h182zM188 0l254 1434h904l-31 -164h-725l-80 -459h602l-29 -164h-602l-86 -483h752l-29 -164h-930z" />
    <glyph glyph-name="Etatonos" unicode="&#x389;" horiz-adv-x="1507" 
d="M188 1137h-116l98 297h182zM188 0l254 1434h179l-111 -623h729l111 623h178l-254 -1434h-178l114 647h-729l-114 -647h-179z" />
    <glyph glyph-name="Iotatonos" unicode="&#x38a;" horiz-adv-x="600" 
d="M188 1137h-116l98 297h182zM188 0l254 1434h179l-254 -1434h-179z" />
    <glyph glyph-name="Omicrontonos" unicode="&#x38c;" horiz-adv-x="1550" 
d="M750 -12q-186 0 -327 80t-215.5 220t-74.5 320q0 171 55.5 324.5t153 267t240 180t307.5 66.5q280 0 448 -173.5t168 -447.5q0 -171 -55 -324t-152.5 -266.5t-240 -180t-307.5 -66.5zM158 1137h-117l98 297h183zM758 150q127 0 234.5 53.5t180 145t112.5 214.5t40 262
q0 204 -120 331.5t-324 127.5q-169 0 -300 -92t-199.5 -245t-68.5 -339q0 -204 120.5 -331t324.5 -127z" />
    <glyph glyph-name="Upsilontonos" unicode="&#x38e;" horiz-adv-x="1456" 
d="M162 1137h-117l98 297h183zM836 707l555 727h206l-700 -904l-100 -530h-170l96 530l-381 904h186z" />
    <glyph glyph-name="Omegatonos" unicode="&#x38f;" horiz-adv-x="1505" 
d="M524 0h-516l31 164h356l13 63q-148 102 -209.5 218.5t-63.5 279.5q-1 144 52.5 275.5t148.5 230t233.5 157t298.5 58.5q171 0 307.5 -69.5t214.5 -199t78 -298.5q0 -230 -124.5 -404t-342.5 -252l-12 -59h363l-29 -164h-518l51 289q209 95 320.5 244.5t111.5 345.5
q0 180 -121 291.5t-313 111.5q-160 0 -285 -78t-190.5 -205.5t-65.5 -277.5q0 -137 62 -235t200 -195zM133 1137h-117l99 297h182z" />
    <glyph glyph-name="iotadieresistonos" unicode="&#x390;" horiz-adv-x="524" 
d="M371 1174h-117l49 311h168zM102 1221q-41 0 -65.5 23.5t-24.5 62.5q0 47 29 75.5t74 28.5q41 0 65.5 -23.5t24.5 -62.5q0 -47 -29 -75.5t-74 -28.5zM569 1221q-41 0 -65.5 23.5t-24.5 62.5q0 47 29 75.5t74 28.5q41 0 65.5 -23.5t24.5 -62.5q0 -47 -29 -75.5t-74 -28.5z
M414 0h-131q-134 0 -187 64.5t-28 203.5l139 776h168l-135 -757q-14 -78 4.5 -105.5t87.5 -27.5h108z" />
    <glyph glyph-name="Alpha" unicode="&#x391;" horiz-adv-x="1329" 
d="M1217 0h-179l-75 387h-629l-211 -387h-195l795 1434h209zM799 1237l-377 -688h510z" />
    <glyph glyph-name="Beta" unicode="&#x392;" horiz-adv-x="1255" 
d="M45 0l254 1434h481q205 0 318.5 -93t113.5 -256q0 -283 -301 -356q242 -58 242 -287q0 -110 -43 -195.5t-121 -139t-183 -80.5t-233 -27h-528zM770 1272h-321l-82 -461h352q150 0 231.5 68t81.5 194q0 92 -66 145.5t-196 53.5zM672 651h-334l-86 -489h362q171 0 265 69.5
t94 206.5q0 106 -78 159.5t-223 53.5z" />
    <glyph glyph-name="Gamma" unicode="&#x393;" horiz-adv-x="1034" 
d="M223 0h-178l256 1434h852l-31 -164h-671z" />
    <glyph glyph-name="uni0394" unicode="&#x394;" horiz-adv-x="1390" 
d="M1247 0h-1294l20 117l783 1317h202l310 -1317zM827 1249l-630 -1085h878z" />
    <glyph glyph-name="Epsilon" unicode="&#x395;" horiz-adv-x="1132" 
d="M45 0l254 1434h903l-31 -164h-725l-79 -459h602l-29 -164h-602l-86 -483h752l-29 -164h-930z" />
    <glyph glyph-name="Zeta" unicode="&#x396;" horiz-adv-x="1214" 
d="M211 1270l31 164h1054l-20 -129l-1045 -1141h869l-29 -164h-1110l21 129l1044 1141h-815z" />
    <glyph glyph-name="Eta" unicode="&#x397;" horiz-adv-x="1363" 
d="M45 0l254 1434h178l-110 -623h729l110 623h178l-254 -1434h-178l115 647h-729l-115 -647h-178z" />
    <glyph glyph-name="Theta" unicode="&#x398;" horiz-adv-x="1529" 
d="M729 -12q-280 0 -448 173t-168 447q0 229 93.5 419.5t267.5 304.5t394 114q280 0 448.5 -173.5t168.5 -447.5q0 -171 -55.5 -324t-153 -266.5t-240 -180t-307.5 -66.5zM737 150q169 0 300 91.5t199.5 244.5t68.5 339q0 204 -120.5 331.5t-324.5 127.5q-169 0 -300 -92
t-199 -245t-68 -339q0 -204 120 -331t324 -127zM1100 633h-629l29 164h628z" />
    <glyph glyph-name="Iota" unicode="&#x399;" horiz-adv-x="456" 
d="M45 0l254 1434h178l-254 -1434h-178z" />
    <glyph glyph-name="Kappa" unicode="&#x39a;" horiz-adv-x="1318" 
d="M1184 1434h235l-637 -607l420 -827h-201l-360 700l-350 -327l-68 -373h-178l254 1434h178l-145 -799z" />
    <glyph glyph-name="Lambda" unicode="&#x39b;" horiz-adv-x="1300" 
d="M119 0h-191l777 1434h210l273 -1434h-182l-228 1225z" />
    <glyph glyph-name="Mu" unicode="&#x39c;" horiz-adv-x="1734" 
d="M45 0l254 1434h223l291 -1192l715 1192h227l-254 -1434h-174l201 1130l-674 -1130h-158l-276 1130l-201 -1130h-174z" />
    <glyph glyph-name="Nu" unicode="&#x39d;" horiz-adv-x="1386" 
d="M219 0h-174l254 1434h145l586 -1127l203 1127h174l-254 -1434h-162l-575 1106z" />
    <glyph glyph-name="Xi" unicode="&#x39e;" horiz-adv-x="1204" 
d="M1251 1270h-1034l29 164h1034zM1071 647h-895l29 164h895zM1040 0h-1060l28 164h1061z" />
    <glyph glyph-name="Omicron" unicode="&#x39f;" horiz-adv-x="1529" 
d="M729 -12q-280 0 -448 173t-168 447q0 229 93.5 419.5t267.5 304.5t394 114q280 0 448.5 -173.5t168.5 -447.5q0 -171 -55.5 -324t-153 -266.5t-240 -180t-307.5 -66.5zM737 150q169 0 300 91.5t199.5 244.5t68.5 339q0 204 -120.5 331.5t-324.5 127.5q-169 0 -300 -92
t-199 -245t-68 -339q0 -204 120 -331t324 -127z" />
    <glyph glyph-name="Pi" unicode="&#x3a0;" horiz-adv-x="1363" 
d="M223 0h-178l256 1434h1083l-256 -1434h-178l228 1270h-727z" />
    <glyph glyph-name="Rho" unicode="&#x3a1;" horiz-adv-x="1216" 
d="M45 0l254 1434h506q209 0 324.5 -113t115.5 -289q0 -227 -149 -354t-391 -127h-383l-99 -551h-178zM791 1270h-345l-96 -555h350q165 0 264 81.5t99 237.5q0 113 -73 174.5t-199 61.5z" />
    <glyph glyph-name="Sigma" unicode="&#x3a3;" horiz-adv-x="1208" 
d="M1061 0h-1090l23 123l665 627l-419 561l20 123h1040l-30 -164h-787l377 -508l-10 -57l-576 -541h816z" />
    <glyph glyph-name="Tau" unicode="&#x3a4;" horiz-adv-x="1191" 
d="M172 1270l31 164h1108l-31 -164h-465l-223 -1270h-178l223 1270h-465z" />
    <glyph glyph-name="Upsilon" unicode="&#x3a5;" horiz-adv-x="1292" 
d="M672 707l555 727h207l-701 -904l-100 -530h-170l96 530l-381 904h187z" />
    <glyph glyph-name="Phi" unicode="&#x3a6;" horiz-adv-x="1685" 
d="M1638 788q0 -206 -99 -368t-279 -256t-412 -103l-23 -120h-172l23 127q-269 29 -415 179.5t-146 397.5q0 207 99 369t278.5 255.5t412.5 102.5l23 121h172l-23 -127q267 -29 414 -180t147 -398zM287 653q0 -191 105 -303t310 -137l179 1012q-275 -17 -434.5 -169.5
t-159.5 -402.5zM1053 1221l-181 -1012q272 15 433 168.5t161 402.5q0 192 -105.5 305t-307.5 136z" />
    <glyph glyph-name="Chi" unicode="&#x3a7;" horiz-adv-x="1245" 
d="M557 735l-332 699h197l264 -555l469 555h211l-590 -705l350 -729h-200l-281 586l-502 -586h-209z" />
    <glyph glyph-name="Psi" unicode="&#x3a8;" horiz-adv-x="1603" 
d="M1407 1053l66 381h174l-66 -369q-58 -333 -222 -478.5t-487 -156.5l-77 -430h-174l77 434q-590 52 -485 637l63 363h175l-64 -363q-40 -231 44.5 -343.5t295.5 -133.5l150 840h174l-152 -846q168 6 268.5 53.5t156 144.5t83.5 267z" />
    <glyph glyph-name="uni03A9" unicode="&#x3a9;" horiz-adv-x="1505" 
d="M524 0h-516l31 164h356l13 63q-148 102 -209.5 218.5t-63.5 279.5q-1 144 52.5 275.5t148.5 230t233.5 157t298.5 58.5q171 0 307.5 -69.5t214.5 -199t78 -298.5q0 -230 -124.5 -404t-342.5 -252l-12 -59h363l-29 -164h-518l51 289q209 95 320.5 244.5t111.5 345.5
q0 180 -121 291.5t-313 111.5q-160 0 -285 -78t-190.5 -205.5t-65.5 -277.5q0 -137 62 -235t200 -195z" />
    <glyph glyph-name="Iotadieresis" unicode="&#x3aa;" horiz-adv-x="456" 
d="M254 1806q44 0 72 -26t28 -66q0 -50 -32.5 -82.5t-79.5 -32.5q-44 0 -72.5 27t-28.5 68q0 49 32.5 80.5t80.5 31.5zM623 1806q44 0 72 -26t28 -66q0 -50 -33 -82.5t-80 -32.5q-44 0 -72 27t-28 68q0 49 32.5 80.5t80.5 31.5zM45 0l254 1434h178l-254 -1434h-178z" />
    <glyph glyph-name="Upsilondieresis" unicode="&#x3ab;" horiz-adv-x="1292" 
d="M666 1806q44 0 72 -26t28 -66q0 -50 -33 -82.5t-80 -32.5q-44 0 -72 27t-28 68q0 49 32.5 80.5t80.5 31.5zM1034 1806q44 0 72.5 -26t28.5 -66q0 -50 -33 -82.5t-80 -32.5q-44 0 -72 27t-28 68q0 49 32 80.5t80 31.5zM672 707l555 727h207l-701 -904l-100 -530h-170
l96 530l-381 904h187z" />
    <glyph glyph-name="alphatonos" unicode="&#x3ac;" horiz-adv-x="1230" 
d="M721 1466h182l-164 -297h-116zM1184 1044l-142 -802q-11 -44 -1 -66t53 -22h55l-27 -154h-86q-88 0 -132.5 38.5t-35.5 117.5q-61 -75 -152 -121.5t-208 -46.5q-193 0 -313.5 126.5t-120.5 321.5q0 176 73.5 318.5t201.5 222.5t286 80q133 0 221.5 -48t126.5 -124l55 159
h146zM535 137q92 0 169.5 39.5t127 103t77 141.5t27.5 157q0 158 -77.5 243.5t-209.5 85.5q-92 0 -170 -39t-128 -102.5t-77.5 -141.5t-27.5 -157q0 -158 78 -244t211 -86z" />
    <glyph glyph-name="epsilontonos" unicode="&#x3ad;" horiz-adv-x="1040" 
d="M662 1167h-117l98 297h182zM432 -12q-192 0 -298.5 75.5t-106.5 208.5q0 110 65 181t184 88q-70 18 -108.5 71t-38.5 138q0 137 125.5 222t331.5 85q212 0 316 -87.5t102 -240.5h-166q-5 96 -66 140t-199 44q-134 0 -207 -45.5t-73 -134.5q0 -70 47.5 -100.5t142.5 -30.5
h166l-18 -149h-174q-262 0 -262 -166q0 -83 66 -119.5t194 -36.5q150 0 224 37t99 149h164q-30 -176 -155.5 -252.5t-354.5 -76.5z" />
    <glyph glyph-name="etatonos" unicode="&#x3ae;" horiz-adv-x="1179" 
d="M655 1477h183l-164 -297h-117zM731 1057q77 0 143 -21t117.5 -62.5t81 -110.5t29.5 -158q0 -59 -12 -130l-177 -985h-168l175 977q12 70 12 123q0 99 -62 156t-172 57q-148 0 -244.5 -103t-129.5 -284l-93 -516h-168l146 821q7 43 -3 56.5t-50 13.5h-58l27 153h98
q90 0 128.5 -34.5t33.5 -102.5q135 150 346 150z" />
    <glyph glyph-name="iotatonos" unicode="&#x3af;" horiz-adv-x="524" 
d="M360 1169h-116l98 297h182zM414 0h-131q-134 0 -187 64.5t-28 203.5l139 776h168l-135 -757q-14 -78 4.5 -105.5t87.5 -27.5h108z" />
    <glyph glyph-name="upsilondieresistonos" unicode="&#x3b0;" horiz-adv-x="1101" 
d="M725 1171h-117l49 312h168zM457 1219q-41 0 -65.5 23.5t-24.5 62.5q0 47 28.5 75.5t73.5 28.5q41 0 65.5 -23.5t24.5 -62.5q0 -47 -28.5 -75.5t-73.5 -28.5zM924 1219q-41 0 -65.5 23.5t-24.5 62.5q0 47 28.5 75.5t73.5 28.5q41 0 65.5 -23.5t24.5 -62.5
q0 -47 -28.5 -75.5t-73.5 -28.5zM467 -12q-212 0 -315 121t-60 366l101 569h167l-102 -569q-30 -166 23 -250t204 -84t229.5 76.5t108.5 243.5l105 583h166l-107 -608q-79 -448 -520 -448z" />
    <glyph glyph-name="alpha" unicode="&#x3b1;" horiz-adv-x="1230" 
d="M1184 1044l-142 -802q-11 -44 -1 -66t53 -22h55l-27 -154h-86q-88 0 -132.5 38.5t-35.5 117.5q-61 -75 -152 -121.5t-208 -46.5q-193 0 -313.5 126.5t-120.5 321.5q0 176 73.5 318.5t201.5 222.5t286 80q133 0 221.5 -48t126.5 -124l55 159h146zM535 137q92 0 169.5 39.5
t127 103t77 141.5t27.5 157q0 158 -77.5 243.5t-209.5 85.5q-92 0 -170 -39t-128 -102.5t-77.5 -141.5t-27.5 -157q0 -158 78 -244t211 -86z" />
    <glyph glyph-name="beta" unicode="&#x3b2;" horiz-adv-x="1165" 
d="M844 754q108 -29 169.5 -110t61.5 -218q0 -188 -140 -313t-345 -125q-130 0 -226 39.5t-149 113.5l-98 -551h-168l256 1426q39 215 166.5 322.5t320.5 107.5q187 0 296.5 -94.5t109.5 -247.5q0 -132 -67.5 -225t-186.5 -125zM575 137q140 0 236 82.5t96 208.5
q0 124 -73 177.5t-218 53.5h-102l21 150h81q140 0 227 73t87 197q0 102 -66.5 159.5t-185.5 57.5q-125 0 -202.5 -67.5t-100.5 -196.5l-111 -614q-11 -132 71 -206.5t240 -74.5z" />
    <glyph glyph-name="gamma" unicode="&#x3b3;" horiz-adv-x="1032" 
d="M932 1044h182l-602 -1017l-66 -359h-165l63 361l-242 1015h172l185 -819z" />
    <glyph glyph-name="delta" unicode="&#x3b4;" horiz-adv-x="1167" 
d="M532 -12q-214 0 -338 117.5t-124 312.5q0 180 94 315t242 189q140 51 268 30l-340 355l22 127h834l-27 -150h-590l336 -344q91 -94 131.5 -188.5t40.5 -216.5q0 -154 -68.5 -278.5t-194.5 -196.5t-286 -72zM537 133q160 0 267 114.5t107 282.5q0 128 -79 206.5t-216 78.5
q-159 0 -267.5 -114t-108.5 -275q0 -135 79.5 -214t217.5 -79z" />
    <glyph glyph-name="epsilon" unicode="&#x3b5;" horiz-adv-x="1040" 
d="M432 -12q-192 0 -298.5 75.5t-106.5 208.5q0 110 65 181t184 88q-70 18 -108.5 71t-38.5 138q0 137 125.5 222t331.5 85q212 0 316 -87.5t102 -240.5h-166q-5 96 -66 140t-199 44q-134 0 -207 -45.5t-73 -134.5q0 -70 47.5 -100.5t142.5 -30.5h166l-18 -149h-174
q-262 0 -262 -166q0 -83 66 -119.5t194 -36.5q150 0 224 37t99 149h164q-30 -176 -155.5 -252.5t-354.5 -76.5z" />
    <glyph glyph-name="zeta" unicode="&#x3b6;" horiz-adv-x="940" 
d="M786 -276h-159l20 122q15 88 -9.5 121t-98.5 33h-109q-192 0 -293.5 78t-101.5 254q0 67 22.5 134.5t55.5 123t92 123t111 118t133 123.5l360 326h-580l27 154h815l-18 -113l-400 -375q-26 -25 -79 -73.5t-78 -71.5t-68.5 -65t-64.5 -66.5t-52.5 -62t-46.5 -65.5
t-31.5 -62.5t-23 -67.5t-6.5 -68q0 -112 68.5 -153t207.5 -41h107q138 0 195.5 -65t31.5 -210z" />
    <glyph glyph-name="eta" unicode="&#x3b7;" horiz-adv-x="1179" 
d="M731 1057q77 0 143 -21t117.5 -62.5t81 -110.5t29.5 -158q0 -59 -12 -130l-177 -985h-168l175 977q12 70 12 123q0 99 -62 156t-172 57q-148 0 -244.5 -103t-129.5 -284l-93 -516h-168l146 821q7 43 -3 56.5t-50 13.5h-58l27 153h98q90 0 128.5 -34.5t33.5 -102.5
q135 150 346 150z" />
    <glyph glyph-name="theta" unicode="&#x3b8;" horiz-adv-x="1191" 
d="M1149 893q4 -130 -18.5 -259.5t-73.5 -245.5t-122.5 -205.5t-172 -142t-215.5 -52.5q-201 0 -313 143.5t-121 407.5q-4 130 18.5 259.5t73 246t122 206t172 142.5t216.5 53q199 0 312 -145t122 -408zM711 1296q-81 0 -149.5 -39.5t-117.5 -108.5t-82.5 -155t-52.5 -188
h666q2 27 2 78q0 190 -68 301.5t-198 111.5zM551 137q67 0 126.5 28t104 76t80 114.5t59 141t37.5 158.5h-667q-4 -70 -4 -104q0 -190 67 -302t197 -112z" />
    <glyph glyph-name="iota" unicode="&#x3b9;" horiz-adv-x="524" 
d="M414 0h-131q-134 0 -187 64.5t-28 203.5l139 776h168l-135 -757q-14 -78 4.5 -105.5t87.5 -27.5h108z" />
    <glyph glyph-name="kappa" unicode="&#x3ba;" horiz-adv-x="1040" 
d="M1004 1044h77l-28 -153h-54q-64 0 -98.5 -16.5t-107.5 -90.5l-189 -190l328 -594h-191l-262 479l-252 -258l-39 -221h-168l185 1044h168l-105 -589l394 411q100 106 168.5 142t173.5 36z" />
    <glyph glyph-name="lambda" unicode="&#x3bb;" horiz-adv-x="1060" 
d="M125 0h-186l591 1010l-30 151q-14 72 -41 95.5t-99 23.5h-120l26 154h166q57 0 89 -7t61.5 -32t48 -72t37.5 -129l270 -1194h-168l-180 811z" />
    <glyph glyph-name="uni03BC" unicode="&#x3bc;" horiz-adv-x="1148" 
d="M1108 1044l-145 -817q-7 -44 5 -58.5t52 -14.5h47l-27 -154h-92q-93 0 -131.5 37t-30.5 108q-56 -75 -140 -116t-185 -41q-184 0 -254 112l-90 -510h-168l256 1454h168l-99 -555q-14 -89 -14 -137q0 -107 52 -159t169 -52q137 0 237 107.5t132 290.5l90 505h168z" />
    <glyph glyph-name="nu" unicode="&#x3bd;" horiz-adv-x="1005" 
d="M438 184l465 860h184l-575 -1044h-203l-207 1044h170z" />
    <glyph glyph-name="xi" unicode="&#x3be;" horiz-adv-x="970" 
d="M805 -276h-160l25 141q14 77 -8.5 105.5t-100.5 29.5l-110 2q-416 7 -416 328q0 141 93.5 253t240.5 146q-72 25 -113 88t-41 156q0 112 69 194.5t189 118.5l-256 -2l27 150h829l-26 -152q-54 0 -152 -4q-504 -19 -504 -293q0 -194 264 -194h213l-28 -154h-230
q-189 0 -294 -74.5t-105 -208.5q0 -57 22 -97t64 -61.5t91.5 -31t113.5 -10.5l110 -2q135 -2 192.5 -57t33.5 -185z" />
    <glyph glyph-name="omicron" unicode="&#x3bf;" horiz-adv-x="1187" 
d="M528 -12q-202 0 -328 126.5t-126 323.5q0 175 76.5 317t210.5 222t298 80q202 0 328.5 -127t126.5 -324q0 -175 -77 -317t-211 -221.5t-298 -79.5zM543 137q179 0 290 134.5t111 326.5q0 137 -84 223t-215 86q-179 0 -290 -134.5t-111 -326.5q0 -137 84 -223t215 -86z
" />
    <glyph glyph-name="pi" unicode="&#x3c0;" horiz-adv-x="1249" 
d="M1274 891h-187l-116 -664q-7 -44 5 -58.5t52 -14.5h55l-26 -154h-101q-103 0 -140 44.5t-19 141.5l125 705h-480l-157 -891h-168l159 891h-180l27 153h1177z" />
    <glyph glyph-name="rho" unicode="&#x3c1;" horiz-adv-x="1210" 
d="M682 1057q203 0 327 -132t124 -337q0 -170 -75.5 -308.5t-202.5 -215t-277 -76.5q-128 0 -223 49.5t-146 142.5l-107 -590h-165l159 893q48 263 198 418.5t388 155.5zM559 137q184 0 295 130t111 317q0 148 -80.5 235.5t-216.5 87.5q-181 0 -292.5 -136t-111.5 -335
q0 -136 81 -217.5t214 -81.5z" />
    <glyph glyph-name="uni03C2" unicode="&#x3c2;" horiz-adv-x="1073" 
d="M809 -276h-162l23 122q17 88 -5.5 119.5t-101.5 34.5l-61 2q-111 4 -195 39.5t-134 95.5t-74.5 134t-24.5 161q0 178 69 319.5t200.5 223.5t303.5 82q189 0 299 -101t115 -268h-164q-10 103 -82.5 161t-181.5 58q-92 0 -167 -38t-122.5 -103t-73.5 -148.5t-26 -175.5
q0 -157 81.5 -221t241.5 -69l58 -2q125 -5 181 -67t32 -198z" />
    <glyph glyph-name="sigma" unicode="&#x3c3;" horiz-adv-x="1243" 
d="M520 -12q-201 0 -323.5 123.5t-122.5 318.5q0 266 166.5 440t429.5 174h624l-26 -153h-271q119 -104 119 -297q0 -263 -166.5 -434.5t-429.5 -171.5zM532 137q123 0 219.5 64.5t146.5 169t50 229.5q0 136 -79 215.5t-212 79.5q-123 0 -219 -64.5t-146 -168.5t-50 -226
q0 -137 79.5 -218t210.5 -81z" />
    <glyph glyph-name="tau" unicode="&#x3c4;" horiz-adv-x="1021" 
d="M1047 891h-408l-113 -623q-4 -32 -4 -43q0 -39 21.5 -55t72.5 -16h207l-26 -154h-207q-124 0 -181 48.5t-57 146.5l15 112l104 584h-375l27 153h948z" />
    <glyph glyph-name="upsilon" unicode="&#x3c5;" horiz-adv-x="1101" 
d="M467 -12q-212 0 -315 121t-60 366l101 569h167l-102 -569q-30 -166 23 -250t204 -84t229.5 76.5t108.5 243.5l105 583h166l-107 -608q-79 -448 -520 -448z" />
    <glyph glyph-name="phi" unicode="&#x3c6;" horiz-adv-x="1495" 
d="M1419 590q0 -268 -190.5 -429t-497.5 -173l-72 -398h-157l71 404q-223 25 -360 148t-137 317q0 268 190.5 429t497.5 173l45 252h158l-45 -258q223 -25 360 -148t137 -317zM244 467q0 -140 94.5 -225.5t261.5 -104.5l137 778q-229 -14 -361 -131t-132 -317zM895 911
l-139 -778q230 14 362.5 131.5t132.5 317.5q0 140 -94.5 225t-261.5 104z" />
    <glyph glyph-name="chi" unicode="&#x3c7;" horiz-adv-x="1091" 
d="M31 -410h-195l580 762l-152 434q-23 65 -47.5 85t-79.5 20h-59l24 153h72q112 0 154.5 -36t85.5 -164l125 -363l426 563h184l-539 -716l164 -469q24 -67 48 -91t83 -24h60l-25 -154h-72q-123 0 -160.5 37t-83.5 175q-2 5 -3 8l-132 389z" />
    <glyph glyph-name="psi" unicode="&#x3c8;" horiz-adv-x="1390" 
d="M1116 502l98 542h168l-100 -559q-23 -130 -75 -224.5t-130.5 -152t-174.5 -85.5t-218 -33l-72 -400h-163l71 402q-115 10 -200.5 44.5t-145.5 97t-78 155t2 219.5l97 536h167l-92 -520q-31 -181 34.5 -273.5t242.5 -111.5l209 1174h164l-209 -1176q190 10 281.5 97
t123.5 268z" />
    <glyph glyph-name="omega" unicode="&#x3c9;" horiz-adv-x="1591" 
d="M426 -12q-154 0 -251 99.5t-97 295.5q0 210 90 380t227 281h193q-60 -50 -114.5 -111.5t-108 -143t-85.5 -181.5t-32 -202q0 -127 54 -197t147 -70q97 0 161 73.5t86 201.5l45 262h164l-47 -262q-24 -130 16.5 -202.5t149.5 -72.5q131 0 219 122t88 310q0 243 -176 473
h178q64 -82 116 -205.5t52 -260.5q0 -167 -62 -302t-171.5 -211.5t-245.5 -76.5q-257 0 -281 200q-41 -94 -121 -147t-194 -53z" />
    <glyph glyph-name="iotadieresis" unicode="&#x3ca;" horiz-adv-x="524" 
d="M158 1417q44 0 72 -26t28 -66q0 -50 -33 -82.5t-80 -32.5q-44 0 -72 27t-28 68q0 49 32.5 80.5t80.5 31.5zM526 1417q44 0 72.5 -26t28.5 -66q0 -50 -33 -82.5t-80 -32.5q-44 0 -72 27t-28 68q0 49 32 80.5t80 31.5zM414 0h-131q-134 0 -187 64.5t-28 203.5l139 776h168
l-135 -757q-14 -78 4.5 -105.5t87.5 -27.5h108z" />
    <glyph glyph-name="upsilondieresis" unicode="&#x3cb;" horiz-adv-x="1101" 
d="M512 1415q44 0 72 -26t28 -66q0 -50 -32.5 -82.5t-79.5 -32.5q-44 0 -72.5 27t-28.5 68q0 49 32.5 80.5t80.5 31.5zM881 1415q44 0 72 -26t28 -66q0 -50 -33 -82.5t-80 -32.5q-44 0 -72 27t-28 68q0 49 32.5 80.5t80.5 31.5zM467 -12q-212 0 -315 121t-60 366l101 569
h167l-102 -569q-30 -166 23 -250t204 -84t229.5 76.5t108.5 243.5l105 583h166l-107 -608q-79 -448 -520 -448z" />
    <glyph glyph-name="omicrontonos" unicode="&#x3cc;" horiz-adv-x="1187" 
d="M756 1169h-117l98 297h183zM528 -12q-202 0 -328 126.5t-126 323.5q0 175 76.5 317t210.5 222t298 80q202 0 328.5 -127t126.5 -324q0 -175 -77 -317t-211 -221.5t-298 -79.5zM543 137q179 0 290 134.5t111 326.5q0 137 -84 223t-215 86q-179 0 -290 -134.5t-111 -326.5
q0 -137 84 -223t215 -86z" />
    <glyph glyph-name="upsilontonos" unicode="&#x3cd;" horiz-adv-x="1101" 
d="M715 1167h-117l98 297h183zM467 -12q-212 0 -315 121t-60 366l101 569h167l-102 -569q-30 -166 23 -250t204 -84t229.5 76.5t108.5 243.5l105 583h166l-107 -608q-79 -448 -520 -448z" />
    <glyph glyph-name="omegatonos" unicode="&#x3ce;" horiz-adv-x="1591" 
d="M961 1167h-117l98 297h182zM426 -12q-154 0 -251 99.5t-97 295.5q0 210 90 380t227 281h193q-60 -50 -114.5 -111.5t-108 -143t-85.5 -181.5t-32 -202q0 -127 54 -197t147 -70q97 0 161 73.5t86 201.5l45 262h164l-47 -262q-24 -130 16.5 -202.5t149.5 -72.5
q131 0 219 122t88 310q0 243 -176 473h178q64 -82 116 -205.5t52 -260.5q0 -167 -62 -302t-171.5 -211.5t-245.5 -76.5q-257 0 -281 200q-41 -94 -121 -147t-194 -53z" />
    <glyph glyph-name="uni0400" unicode="&#x400;" horiz-adv-x="1132" 
d="M700 1556l-188 279h190l125 -279h-127zM45 0l254 1434h903l-31 -164h-725l-79 -459h602l-29 -164h-602l-86 -483h752l-29 -164h-930z" />
    <glyph glyph-name="uni0401" unicode="&#x401;" horiz-adv-x="1132" 
d="M608 1806q44 0 72.5 -26t28.5 -66q0 -50 -33 -82.5t-80 -32.5q-44 0 -72 27t-28 68q0 49 32 80.5t80 31.5zM977 1806q44 0 72 -26t28 -66q0 -50 -32.5 -82.5t-79.5 -32.5q-44 0 -72.5 27t-28.5 68q0 49 32.5 80.5t80.5 31.5zM45 0l254 1434h903l-31 -164h-725l-79 -459
h602l-29 -164h-602l-86 -483h752l-29 -164h-930z" />
    <glyph glyph-name="uni0402" unicode="&#x402;" horiz-adv-x="1609" 
d="M1051 895q116 0 210 -30t160 -88t93 -150.5t6 -208.5l-39 -223q-23 -131 -67.5 -222.5t-112 -146t-151.5 -78.5t-194 -24h-94l27 163h55q79 0 135 14t102.5 49.5t76.5 98.5t47 158l34 190q31 170 -52 252t-263 82q-190 0 -324 -90l-114 -641h-178l225 1270h-461l29 164
h1192l-29 -164h-553l-80 -447q144 72 320 72z" />
    <glyph glyph-name="uni0403" unicode="&#x403;" horiz-adv-x="1001" 
d="M782 1559h-141l201 276h202zM223 0h-178l256 1434h819l-28 -164h-641z" />
    <glyph glyph-name="uni0404" unicode="&#x404;" horiz-adv-x="1429" 
d="M702 152q177 0 288 79.5t179 239.5h179q-76 -237 -239 -360t-409 -123q-177 0 -312 78.5t-206 215t-71 310.5q0 175 55.5 330.5t156 271.5t250.5 184t328 68q239 0 379.5 -130t140.5 -353h-174q-12 149 -110.5 234t-255.5 85q-213 0 -360 -131.5t-202 -341.5h599
l-29 -164h-594q-2 -18 -2 -55q0 -193 111 -315.5t298 -122.5z" />
    <glyph glyph-name="uni0405" unicode="&#x405;" horiz-adv-x="1243" 
d="M602 -12q-252 0 -389 128t-137 353h174q3 -106 51.5 -179.5t124 -106.5t172.5 -33q166 0 264.5 66.5t98.5 195.5q0 39 -16 71.5t-43 56t-70 44t-88.5 34.5t-106.5 29q-75 18 -135.5 38.5t-118.5 52.5t-96.5 70.5t-62 93.5t-23.5 120q0 104 40.5 186t112.5 133.5t168.5 78
t212.5 26.5q225 0 353 -117.5t131 -306.5h-175q-6 119 -93 190.5t-228 71.5q-159 0 -251.5 -64t-92.5 -188q0 -47 23 -83.5t69 -63t99 -45t130 -37.5q75 -18 135 -38.5t119 -52.5t98.5 -70.5t64 -93.5t24.5 -120q0 -210 -147.5 -325t-391.5 -115z" />
    <glyph glyph-name="uni0406" unicode="&#x406;" horiz-adv-x="456" 
d="M45 0l254 1434h178l-254 -1434h-178z" />
    <glyph glyph-name="uni0407" unicode="&#x407;" horiz-adv-x="456" 
d="M254 1806q44 0 72 -26t28 -66q0 -50 -32.5 -82.5t-79.5 -32.5q-44 0 -72.5 27t-28.5 68q0 49 32.5 80.5t80.5 31.5zM623 1806q44 0 72 -26t28 -66q0 -50 -33 -82.5t-80 -32.5q-44 0 -72 27t-28 68q0 49 32.5 80.5t80.5 31.5zM45 0l254 1434h178l-254 -1434h-178z" />
    <glyph glyph-name="uni0408" unicode="&#x408;" horiz-adv-x="716" 
d="M369 354l190 1080h178l-194 -1102q-59 -332 -391 -332h-193l31 164h157q97 0 151 46.5t71 143.5z" />
    <glyph glyph-name="uni0409" unicode="&#x409;" horiz-adv-x="2107" 
d="M-12 0h-62l29 164h41q58 0 96 12t74 46.5t60.5 101.5t43.5 174l166 936h953l-111 -603h317q203 0 318 -104t115 -272q0 -199 -145.5 -327t-373.5 -128h-557l228 1270h-602l-142 -787q-34 -185 -93 -291.5t-143 -149t-212 -42.5zM1251 672l-92 -512h352q152 0 242 75
t90 209q0 110 -69 169t-201 59h-322z" />
    <glyph glyph-name="uni040A" unicode="&#x40a;" horiz-adv-x="2080" 
d="M223 0h-178l254 1434h178l-106 -603h704l109 603h178l-111 -603h318q203 0 317.5 -104t114.5 -272q0 -199 -145 -327t-373 -128h-557l118 668h-702zM1221 672l-91 -512h355q152 0 242 75t90 209q0 110 -69.5 169t-201.5 59h-325z" />
    <glyph glyph-name="uni040B" unicode="&#x40b;" horiz-adv-x="1626" 
d="M1059 895q92 0 170 -19t139 -57t99.5 -95t52 -133.5t-3.5 -172.5l-74 -418h-178l71 397q62 334 -303 334q-192 0 -334 -96l-112 -635h-178l225 1270h-461l29 164h1192l-29 -164h-553l-80 -451q146 76 328 76z" />
    <glyph glyph-name="uni040C" unicode="&#x40c;" horiz-adv-x="1298" 
d="M905 1559h-141l201 276h202zM223 0h-178l256 1434h178l-110 -623h260l561 623h211l-627 -705l406 -729h-199l-365 647h-278z" />
    <glyph glyph-name="uni040D" unicode="&#x40d;" horiz-adv-x="1378" 
d="M811 1556l-188 279h190l125 -279h-127zM209 0h-164l256 1434h178l-205 -1131l961 1131h164l-256 -1434h-178l204 1130z" />
    <glyph glyph-name="uni040E" unicode="&#x40e;" horiz-adv-x="1241" 
d="M819 1554q-139 0 -205 74.5t-55 206.5h139q-10 -162 129 -162q81 0 129 42.5t60 119.5h139q-27 -134 -110.5 -207.5t-225.5 -73.5zM272 0h-180l29 164h141q84 0 125.5 23t95.5 112l60 98l-365 1037h191l293 -852l526 852h194l-741 -1182q-92 -147 -169 -199.5t-200 -52.5
z" />
    <glyph glyph-name="uni040F" unicode="&#x40f;" horiz-adv-x="1343" 
d="M1186 1434h178l-258 -1434h-440l-52 -293h-178l51 293h-442l256 1434h178l-227 -1270h706z" />
    <glyph glyph-name="uni0410" unicode="&#x410;" horiz-adv-x="1329" 
d="M1217 0h-179l-75 387h-629l-211 -387h-195l795 1434h209zM799 1237l-377 -688h510z" />
    <glyph glyph-name="uni0411" unicode="&#x411;" horiz-adv-x="1226" 
d="M588 0h-543l256 1434h879l-31 -164h-698l-78 -426h327q198 0 314 -100.5t116 -272.5q0 -207 -150.5 -339t-391.5 -132zM348 686l-100 -526h350q155 0 252.5 80t97.5 209q0 112 -71.5 174.5t-212.5 62.5h-316z" />
    <glyph glyph-name="uni0412" unicode="&#x412;" horiz-adv-x="1255" 
d="M45 0l254 1434h481q205 0 318.5 -93t113.5 -256q0 -283 -301 -356q242 -58 242 -287q0 -110 -43 -195.5t-121 -139t-183 -80.5t-233 -27h-528zM770 1272h-321l-82 -461h352q150 0 231.5 68t81.5 194q0 92 -66 145.5t-196 53.5zM672 651h-334l-86 -489h362q171 0 265 69.5
t94 206.5q0 106 -78 159.5t-223 53.5z" />
    <glyph glyph-name="uni0413" unicode="&#x413;" horiz-adv-x="1001" 
d="M223 0h-178l256 1434h819l-28 -164h-641z" />
    <glyph glyph-name="uni0414" unicode="&#x414;" horiz-adv-x="1507" 
d="M467 1434h983l-227 -1270h174l-80 -457h-180l53 293h-1065l-53 -293h-176l81 457h138q84 51 127.5 146.5t79.5 297.5zM324 164h720l199 1106h-635l-119 -682q-31 -174 -66 -268.5t-99 -155.5z" />
    <glyph glyph-name="uni0415" unicode="&#x415;" horiz-adv-x="1132" 
d="M45 0l254 1434h903l-31 -164h-725l-79 -459h602l-29 -164h-602l-86 -483h752l-29 -164h-930z" />
    <glyph glyph-name="uni0416" unicode="&#x416;" horiz-adv-x="1994" 
d="M145 0h-211l637 735l-370 699h200l330 -625h223l111 625h180l-112 -625h217l536 625h211l-612 -709l391 -725h-199l-348 645h-223l-117 -645h-178l117 645h-221z" />
    <glyph glyph-name="uni0417" unicode="&#x417;" horiz-adv-x="1210" 
d="M555 -12q-235 0 -364 116t-134 324h174q15 -145 98 -211.5t236 -66.5q171 0 265 74.5t94 205.5q0 105 -80.5 161t-229.5 56h-129l29 164h158q148 0 240 72t92 188q0 98 -79 155.5t-212 57.5q-154 0 -248.5 -65.5t-120.5 -190.5h-176q35 202 179 310t376 108
q217 0 340 -102.5t123 -264.5q0 -141 -88 -231.5t-232 -116.5q106 -24 173 -99t67 -200q0 -208 -149.5 -326t-401.5 -118z" />
    <glyph glyph-name="uni0418" unicode="&#x418;" horiz-adv-x="1378" 
d="M209 0h-164l256 1434h178l-205 -1131l961 1131h164l-256 -1434h-178l204 1130z" />
    <glyph glyph-name="uni0419" unicode="&#x419;" horiz-adv-x="1378" 
d="M893 1554q-139 0 -205 74.5t-55 206.5h139q-10 -162 129 -162q81 0 129 42.5t60 119.5h139q-27 -134 -110.5 -207.5t-225.5 -73.5zM209 0h-164l256 1434h178l-205 -1131l961 1131h164l-256 -1434h-178l204 1130z" />
    <glyph glyph-name="uni041A" unicode="&#x41a;" horiz-adv-x="1298" 
d="M223 0h-178l256 1434h178l-110 -623h260l561 623h211l-627 -705l406 -729h-199l-365 647h-278z" />
    <glyph glyph-name="uni041B" unicode="&#x41b;" horiz-adv-x="1398" 
d="M-12 0h-62l29 164h41q46 0 78.5 7t65 27.5t55.5 57t43.5 96.5t35.5 146l164 936h981l-256 -1434h-178l227 1270h-634l-140 -787q-25 -139 -63 -232.5t-95 -149t-126.5 -78.5t-165.5 -23z" />
    <glyph glyph-name="uni041C" unicode="&#x41c;" horiz-adv-x="1734" 
d="M45 0l254 1434h223l291 -1192l715 1192h227l-254 -1434h-174l201 1130l-674 -1130h-158l-276 1130l-201 -1130h-174z" />
    <glyph glyph-name="uni041D" unicode="&#x41d;" horiz-adv-x="1363" 
d="M45 0l254 1434h178l-110 -623h729l110 623h178l-254 -1434h-178l115 647h-729l-115 -647h-178z" />
    <glyph glyph-name="uni041E" unicode="&#x41e;" horiz-adv-x="1529" 
d="M729 -12q-280 0 -448 173t-168 447q0 229 93.5 419.5t267.5 304.5t394 114q280 0 448.5 -173.5t168.5 -447.5q0 -171 -55.5 -324t-153 -266.5t-240 -180t-307.5 -66.5zM737 150q169 0 300 91.5t199.5 244.5t68.5 339q0 204 -120.5 331.5t-324.5 127.5q-169 0 -300 -92
t-199 -245t-68 -339q0 -204 120 -331t324 -127z" />
    <glyph glyph-name="uni041F" unicode="&#x41f;" horiz-adv-x="1357" 
d="M223 0h-178l256 1434h1077l-256 -1434h-178l227 1270h-720z" />
    <glyph glyph-name="uni0420" unicode="&#x420;" horiz-adv-x="1216" 
d="M45 0l254 1434h506q209 0 324.5 -113t115.5 -289q0 -227 -149 -354t-391 -127h-383l-99 -551h-178zM791 1270h-345l-96 -555h350q165 0 264 81.5t99 237.5q0 113 -73 174.5t-199 61.5z" />
    <glyph glyph-name="uni0421" unicode="&#x421;" horiz-adv-x="1431" 
d="M715 -12q-268 0 -435 172.5t-167 449.5q0 167 54 318.5t150.5 266.5t240.5 183t314 68q242 0 390 -131t157 -352h-174q-22 150 -123 234.5t-264 84.5q-105 0 -196 -37t-157.5 -101t-114 -149t-71.5 -184t-24 -203q0 -204 117 -330t305 -126q165 0 275.5 80t178.5 239h179
q-75 -235 -238 -359t-397 -124z" />
    <glyph glyph-name="uni0422" unicode="&#x422;" horiz-adv-x="1191" 
d="M172 1270l31 164h1108l-31 -164h-465l-223 -1270h-178l223 1270h-465z" />
    <glyph glyph-name="uni0423" unicode="&#x423;" horiz-adv-x="1241" 
d="M272 0h-180l29 164h141q84 0 125.5 23t95.5 112l60 98l-365 1037h191l293 -852l526 852h194l-741 -1182q-92 -147 -169 -199.5t-200 -52.5z" />
    <glyph glyph-name="uni0424" unicode="&#x424;" horiz-adv-x="1789" 
d="M1743 778q0 -198 -103 -349.5t-292.5 -237t-440.5 -93.5l-33 -180h-172l33 186q-290 25 -454 170.5t-164 380.5q0 299 228.5 483.5t606.5 196.5l33 181h172l-33 -187q290 -25 454.5 -170.5t164.5 -380.5zM295 672q0 -187 119.5 -291.5t347.5 -124.5l164 924
q-294 -12 -462.5 -147t-168.5 -361zM1098 1178l-164 -924q295 12 464 146.5t169 361.5q0 187 -119.5 291.5t-349.5 124.5z" />
    <glyph glyph-name="uni0425" unicode="&#x425;" horiz-adv-x="1245" 
d="M557 735l-332 699h197l264 -555l469 555h211l-590 -705l350 -729h-200l-281 586l-502 -586h-209z" />
    <glyph glyph-name="uni0426" unicode="&#x426;" horiz-adv-x="1421" 
d="M1186 1434h178l-229 -1270h176l-80 -457h-180l53 293h-1059l256 1434h178l-227 -1270h706z" />
    <glyph glyph-name="uni0427" unicode="&#x427;" horiz-adv-x="1269" 
d="M995 784l117 650h178l-256 -1434h-178l107 598q-149 -84 -342 -84q-116 0 -208 30t-155.5 88t-88.5 150t-5 209l78 443h178l-76 -422q-59 -334 303 -334q209 0 348 106z" />
    <glyph glyph-name="uni0428" unicode="&#x428;" horiz-adv-x="2009" 
d="M1776 0h-1731l254 1434h178l-225 -1270h600l225 1270h178l-225 -1270h596l227 1270h177z" />
    <glyph glyph-name="uni0429" unicode="&#x429;" horiz-adv-x="2091" 
d="M1853 1434h177l-226 -1270h176l-79 -457h-181l54 293h-1729l254 1434h178l-225 -1270h600l225 1270h178l-225 -1270h596z" />
    <glyph glyph-name="uni042A" unicode="&#x42a;" horiz-adv-x="1525" 
d="M899 0h-549l228 1270h-406l29 164h583l-98 -547h299q213 0 339 -113t126 -291q0 -211 -156 -347t-395 -136zM657 727l-100 -567h344q163 0 264 83.5t101 229.5q0 121 -80 187.5t-223 66.5h-306z" />
    <glyph glyph-name="uni042B" unicode="&#x42b;" horiz-adv-x="1648" 
d="M582 0h-537l256 1434h178l-98 -547h287q213 0 339 -113t126 -291q0 -211 -156 -347t-395 -136zM1413 0h-178l256 1434h178zM352 727l-102 -567h334q163 0 263.5 83.5t100.5 229.5q0 121 -80 187.5t-223 66.5h-293z" />
    <glyph glyph-name="uni042C" unicode="&#x42c;" horiz-adv-x="1220" 
d="M594 0h-549l256 1434h178l-98 -547h299q213 0 339 -113t126 -291q0 -211 -156 -347t-395 -136zM352 727l-100 -567h344q163 0 264 83.5t101 229.5q0 121 -80.5 187.5t-223.5 66.5h-305z" />
    <glyph glyph-name="uni042D" unicode="&#x42d;" horiz-adv-x="1441" 
d="M793 1446q268 0 435 -178.5t167 -464.5q0 -164 -52.5 -311.5t-147.5 -259.5t-237.5 -178t-312.5 -66q-243 0 -395.5 131.5t-161.5 351.5h174q22 -149 127.5 -234t269.5 -85q110 0 203.5 39t160 107t111 156t64.5 191h-610l28 164h596q-1 212 -118 342.5t-303 130.5
q-325 0 -461 -319h-174q72 234 237 358.5t400 124.5z" />
    <glyph glyph-name="uni042E" unicode="&#x42e;" horiz-adv-x="1996" 
d="M1368 1446q259 0 423.5 -169t164.5 -435q0 -140 -36 -269t-104.5 -234.5t-161.5 -184.5t-214.5 -122.5t-257.5 -43.5q-260 0 -427 169t-167 435q0 35 2 51h-254l-113 -643h-178l254 1434h180l-110 -627h241q63 282 268 460.5t490 178.5zM1194 152q100 0 191.5 35.5
t161.5 98t122 144.5t79.5 179.5t27.5 199.5q0 208 -115.5 340.5t-304.5 132.5q-126 0 -236.5 -54.5t-187 -145t-120.5 -210.5t-44 -249q0 -206 118 -338.5t308 -132.5z" />
    <glyph glyph-name="uni042F" unicode="&#x42f;" horiz-adv-x="1280" 
d="M743 1434h557l-256 -1434h-178l103 551h-281q-42 0 -65 2l-422 -553h-209l459 592q-123 47 -192 144.5t-69 226.5q0 213 154 342t399 129zM670 715h323l101 555h-367q-161 0 -257.5 -79.5t-96.5 -217.5q0 -124 77 -191t220 -67z" />
    <glyph glyph-name="uni0430" unicode="&#x430;" horiz-adv-x="1099" 
d="M963 154h55l-27 -154h-86q-78 0 -121.5 31.5t-48.5 81.5q-152 -125 -348 -125q-162 0 -260 74t-98 208q0 90 34.5 157.5t98.5 109t148.5 61.5t189.5 20h311l10 56q6 48 6 67q0 78 -61 122t-166 44q-121 0 -189.5 -45.5t-99.5 -130.5h-172q94 326 479 326q169 0 274 -79.5
t105 -225.5q0 -43 -10 -105l-76 -405q-6 -30 -6 -43q0 -45 58 -45zM403 131q156 0 253.5 82.5t121.5 218.5l8 45h-317q-125 0 -196.5 -48t-71.5 -144q0 -75 54.5 -114.5t147.5 -39.5z" />
    <glyph glyph-name="uni0431" unicode="&#x431;" horiz-adv-x="1189" 
d="M549 -12q-213 0 -334 131t-121 368q0 189 39.5 344.5t117.5 275t202 193t286 93.5l437 53l-27 -156l-332 -35q-242 -26 -361.5 -133.5t-176.5 -347.5q49 92 155 150.5t236 58.5q191 0 315.5 -116.5t124.5 -305.5q0 -155 -71 -285.5t-200.5 -209t-289.5 -78.5zM555 135
q110 0 200 57.5t138.5 151.5t48.5 203q0 131 -83 210t-222 79q-165 0 -273 -116.5t-108 -281.5q0 -136 81 -219.5t218 -83.5z" />
    <glyph glyph-name="uni0432" unicode="&#x432;" horiz-adv-x="1042" 
d="M483 0h-463l185 1044h426q344 0 344 -256q0 -90 -59.5 -162t-153.5 -91q170 -49 170 -211q0 -157 -118 -240.5t-331 -83.5zM344 901l-53 -301h287q106 0 165.5 45t59.5 127q0 69 -44 99t-128 30h-287zM266 459l-57 -316h303q118 0 183 44.5t65 129.5q0 69 -49.5 105.5
t-141.5 36.5h-303z" />
    <glyph glyph-name="uni0433" unicode="&#x433;" horiz-adv-x="796" 
d="M188 0h-168l187 1044h657l-26 -153h-490z" />
    <glyph glyph-name="uni0434" unicode="&#x434;" horiz-adv-x="1214" 
d="M332 1044h794l-159 -890h159l-77 -430h-160l51 276h-856l-49 -276h-160l76 430h125q59 37 95 118.5t67 247.5zM270 154h529l133 737h-467l-72 -389q-26 -137 -53.5 -217.5t-69.5 -130.5z" />
    <glyph glyph-name="uni0435" unicode="&#x435;" horiz-adv-x="1140" 
d="M651 1057q193 0 306.5 -111.5t113.5 -296.5q0 -95 -16 -166h-807q-2 -14 -2 -39q0 -62 17.5 -116t52.5 -97.5t94 -68.5t135 -25q82 0 142.5 27.5t97 72t67.5 113.5h170q-52 -175 -178 -268.5t-305 -93.5q-216 0 -339.5 124.5t-123.5 327.5q0 166 67 305t200 225.5
t308 86.5zM279 629h610q2 14 2 37q0 115 -69.5 179t-190.5 64q-129 0 -224 -77.5t-128 -202.5z" />
    <glyph glyph-name="uni0436" unicode="&#x436;" horiz-adv-x="1560" 
d="M115 0h-197l490 545l-273 499h176l244 -438h158l78 438h163l-77 -438h151l402 438h184l-453 -507l297 -537h-184l-256 453h-166l-80 -453h-166l82 453h-153z" />
    <glyph glyph-name="uni0437" unicode="&#x437;" horiz-adv-x="1030" 
d="M451 -12q-420 0 -420 334h164q6 -92 68 -141.5t200 -49.5q131 0 208 49t77 133q0 144 -226 144h-129l25 143h133q122 0 187 42.5t65 127.5q0 67 -63.5 105t-170.5 38q-132 0 -206.5 -44t-94.5 -140h-164q31 159 152 243.5t326 84.5q185 0 289 -80t104 -209
q0 -94 -62 -159t-163 -79q70 -20 119 -75.5t49 -147.5q0 -142 -128.5 -230.5t-338.5 -88.5z" />
    <glyph glyph-name="uni0438" unicode="&#x438;" horiz-adv-x="1148" 
d="M166 0h-146l187 1044h164l-144 -778l756 778h145l-186 -1044h-164l144 778z" />
    <glyph glyph-name="uni0439" unicode="&#x439;" horiz-adv-x="1148" 
d="M709 1163q-139 0 -205 74.5t-55 206.5h139q-10 -162 129 -162q81 0 128.5 42.5t59.5 119.5h139q-27 -134 -110 -207.5t-225 -73.5zM166 0h-146l187 1044h164l-144 -778l756 778h145l-186 -1044h-164l144 778z" />
    <glyph glyph-name="uni043A" unicode="&#x43a;" horiz-adv-x="1054" 
d="M188 0h-168l187 1044h168l-80 -434h207l407 434h197l-469 -509l315 -535h-188l-272 457h-224z" />
    <glyph glyph-name="uni043B" unicode="&#x43b;" horiz-adv-x="1101" 
d="M-18 0h-66l25 154h36q59 0 95 16.5t64.5 67.5t45.5 145l119 661h780l-186 -1044h-168l160 891h-451l-96 -518q-38 -211 -121 -292t-237 -81z" />
    <glyph glyph-name="uni043C" unicode="&#x43c;" horiz-adv-x="1413" 
d="M182 0h-162l187 1044h201l241 -835l537 835h207l-187 -1044h-162l146 797l-514 -797h-125l-223 795z" />
    <glyph glyph-name="uni043D" unicode="&#x43d;" horiz-adv-x="1138" 
d="M872 608l78 436h168l-186 -1044h-168l82 455h-576l-82 -455h-168l187 1044h168l-78 -436h575z" />
    <glyph glyph-name="uni043E" unicode="&#x43e;" horiz-adv-x="1187" 
d="M528 -12q-202 0 -328 126.5t-126 323.5q0 175 76.5 317t210.5 222t298 80q202 0 328.5 -127t126.5 -324q0 -175 -77 -317t-211 -221.5t-298 -79.5zM543 137q179 0 290 134.5t111 326.5q0 137 -84 223t-215 86q-179 0 -290 -134.5t-111 -326.5q0 -137 84 -223t215 -86z
" />
    <glyph glyph-name="uni043F" unicode="&#x43f;" horiz-adv-x="1118" 
d="M188 0h-168l187 1044h891l-187 -1044h-168l160 891h-555z" />
    <glyph glyph-name="uni0440" unicode="&#x440;" horiz-adv-x="1206" 
d="M696 1057q193 0 313.5 -129.5t120.5 -325.5q0 -176 -73.5 -317t-201.5 -219t-286 -78q-138 0 -227 50t-127 130l-98 -578h-168l256 1454h145v-141q140 154 346 154zM555 137q92 0 170 39.5t128 103t77.5 141t27.5 157.5q0 158 -77.5 243.5t-210.5 85.5q-92 0 -169.5 -39
t-127.5 -102.5t-77.5 -141.5t-27.5 -157q0 -158 77.5 -244t209.5 -86z" />
    <glyph glyph-name="uni0441" unicode="&#x441;" horiz-adv-x="1107" 
d="M848 360h170q-41 -183 -174 -277.5t-316 -94.5q-200 0 -326 129t-126 325q0 271 155.5 443t415.5 172q189 0 299 -101t115 -268h-164q-10 103 -82.5 161t-181.5 58q-122 0 -211.5 -63.5t-132.5 -165t-43 -225.5q0 -142 82.5 -229t216.5 -87q108 0 188 57.5t115 165.5z
" />
    <glyph glyph-name="uni0442" unicode="&#x442;" horiz-adv-x="964" 
d="M469 0h-168l158 891h-373l27 153h919l-26 -153h-377z" />
    <glyph glyph-name="uni0443" unicode="&#x443;" horiz-adv-x="1009" 
d="M319 -8l-217 1052h170l166 -849l471 849h183l-699 -1226q-41 -72 -65.5 -108t-58 -67.5t-71 -42t-92.5 -10.5h-206l26 154h144q70 0 106 26t78 103z" />
    <glyph glyph-name="uni0444" unicode="&#x444;" horiz-adv-x="1511" 
d="M1436 592q0 -179 -90.5 -314t-246 -207.5t-356.5 -80.5l-71 -400h-166l72 404q-236 24 -369 143t-133 316q0 135 52 246.5t144 187t218.5 119.5t275.5 51l61 344h168l-61 -348q235 -24 368.5 -144t133.5 -317zM244 461q0 -286 358 -324l137 772q-227 -12 -361 -128.5
t-134 -319.5zM907 907l-137 -772q229 14 363.5 129.5t134.5 319.5q0 142 -92 224t-269 99z" />
    <glyph glyph-name="uni0445" unicode="&#x445;" horiz-adv-x="1015" 
d="M887 1044h198l-469 -518l297 -526h-188l-233 414l-375 -414h-199l498 547l-281 497h189l217 -385z" />
    <glyph glyph-name="uni0446" unicode="&#x446;" horiz-adv-x="1177" 
d="M1079 1042l-159 -888h170l-78 -430h-160l51 276h-883l187 1042h168l-160 -888h537l159 888h168z" />
    <glyph glyph-name="uni0447" unicode="&#x447;" horiz-adv-x="1038" 
d="M766 569l84 475h168l-189 -1044h-165l73 410q-118 -70 -274 -70q-199 0 -293 105.5t-59 304.5l51 294h168l-51 -280q-27 -145 33.5 -208.5t199.5 -63.5q142 0 254 77z" />
    <glyph glyph-name="uni0448" unicode="&#x448;" horiz-adv-x="1630" 
d="M1423 0h-1403l187 1044h168l-162 -890h453l157 890h168l-160 -890h451l160 890h168z" />
    <glyph glyph-name="uni0449" unicode="&#x449;" horiz-adv-x="1708" 
d="M1610 1044l-160 -890h170l-78 -430h-160l52 276h-1414l187 1044h168l-162 -890h453l157 890h168l-160 -890h451l160 890h168z" />
    <glyph glyph-name="uni044A" unicode="&#x44a;" horiz-adv-x="1253" 
d="M535 705h241q183 0 281 -85t98 -237q0 -177 -121.5 -280t-328.5 -103h-463l159 891h-315l27 153h483zM434 143h268q129 0 205 60t76 172q0 186 -242 186h-231z" />
    <glyph glyph-name="uni044B" unicode="&#x44b;" horiz-adv-x="1396" 
d="M473 0h-453l187 1044h168l-62 -339h232q180 0 276.5 -85t96.5 -237q0 -177 -120.5 -280t-324.5 -103zM1190 0h-166l184 1044h168zM289 561l-76 -418h258q126 0 200 60t74 172q0 186 -235 186h-221z" />
    <glyph glyph-name="uni044C" unicode="&#x44c;" horiz-adv-x="1032" 
d="M483 0h-463l187 1044h168l-62 -339h242q183 0 281 -85t98 -237q0 -177 -122 -280t-329 -103zM289 561l-76 -418h268q129 0 205 60t76 172q0 186 -242 186h-231z" />
    <glyph glyph-name="uni044D" unicode="&#x44d;" horiz-adv-x="1116" 
d="M586 1057q200 0 326 -129.5t126 -325.5q0 -276 -149.5 -445t-409.5 -169q-190 0 -305.5 101t-120.5 267h164q10 -101 88 -160t189 -59q146 0 237.5 86t122.5 230h-446l26 149h434q-3 138 -85.5 221.5t-213.5 83.5q-108 0 -188 -57.5t-115 -165.5h-170q41 183 174 278
t316 95z" />
    <glyph glyph-name="uni044E" unicode="&#x44e;" horiz-adv-x="1617" 
d="M1092 1057q201 0 325.5 -129.5t124.5 -327.5q0 -266 -165 -439t-416 -173q-202 0 -326.5 126.5t-124.5 323.5v13h-242l-80 -451h-168l187 1044h168l-78 -440h231q50 203 203.5 328t360.5 125zM975 137q119 0 211 64t139 168t47 229q0 137 -83 223t-212 86
q-119 0 -211 -64t-139 -168t-47 -229q0 -138 82 -223.5t213 -85.5z" />
    <glyph glyph-name="uni044F" unicode="&#x44f;" horiz-adv-x="1042" 
d="M547 1044h475l-188 -1044h-168l61 356h-248l-323 -356h-209l366 393q-106 31 -163.5 104t-57.5 185q0 165 125 263.5t330 98.5zM506 498h250l69 403h-293q-125 0 -196.5 -55t-71.5 -160q0 -90 63 -139t179 -49z" />
    <glyph glyph-name="uni0450" unicode="&#x450;" horiz-adv-x="1140" 
d="M627 1167l-189 279h191l125 -279h-127zM651 1057q193 0 306.5 -111.5t113.5 -296.5q0 -95 -16 -166h-807q-2 -14 -2 -39q0 -62 17.5 -116t52.5 -97.5t94 -68.5t135 -25q82 0 142.5 27.5t97 72t67.5 113.5h170q-52 -175 -178 -268.5t-305 -93.5q-216 0 -339.5 124.5
t-123.5 327.5q0 166 67 305t200 225.5t308 86.5zM279 629h610q2 14 2 37q0 115 -69.5 179t-190.5 64q-129 0 -224 -77.5t-128 -202.5z" />
    <glyph glyph-name="uni0451" unicode="&#x451;" horiz-adv-x="1140" 
d="M535 1417q44 0 72 -26t28 -66q0 -50 -33 -82.5t-80 -32.5q-44 0 -72 27t-28 68q0 49 32.5 80.5t80.5 31.5zM903 1417q44 0 72.5 -26t28.5 -66q0 -50 -33 -82.5t-80 -32.5q-44 0 -72 27t-28 68q0 49 32 80.5t80 31.5zM651 1057q193 0 306.5 -111.5t113.5 -296.5
q0 -95 -16 -166h-807q-2 -14 -2 -39q0 -62 17.5 -116t52.5 -97.5t94 -68.5t135 -25q82 0 142.5 27.5t97 72t67.5 113.5h170q-52 -175 -178 -268.5t-305 -93.5q-216 0 -339.5 124.5t-123.5 327.5q0 166 67 305t200 225.5t308 86.5zM279 629h610q2 14 2 37q0 115 -69.5 179
t-190.5 64q-129 0 -224 -77.5t-128 -202.5z" />
    <glyph glyph-name="uni0452" unicode="&#x452;" horiz-adv-x="1138" 
d="M702 1057q207 0 296.5 -131.5t50.5 -350.5l-129 -718q-25 -140 -97.5 -203.5t-216.5 -63.5h-147l26 154h125q124 0 142 121l127 702q61 336 -215 336q-148 0 -248 -104t-133 -283l-93 -516h-167l204 1155h-164l17 148h174l22 131h168l-22 -131h338l-19 -148h-346
l-45 -268q137 170 352 170z" />
    <glyph glyph-name="uni0453" unicode="&#x453;" horiz-adv-x="796" 
d="M635 1167h-141l200 277h203zM188 0h-168l187 1044h657l-26 -153h-490z" />
    <glyph glyph-name="uni0454" unicode="&#x454;" horiz-adv-x="1124" 
d="M545 137q108 0 188 57.5t115 165.5h170q-41 -183 -174 -277.5t-316 -94.5q-200 0 -326 129t-126 325q0 271 155.5 443t415.5 172q189 0 299 -101t115 -268h-164q-10 103 -82.5 161t-181.5 58q-145 0 -241 -85.5t-130 -225.5h445l-27 -150h-434q1 -139 84 -224t215 -85z
" />
    <glyph glyph-name="uni0455" unicode="&#x455;" horiz-adv-x="991" 
d="M541 1057q180 0 287.5 -85t107.5 -247h-166q-3 86 -65.5 137t-165.5 51q-116 0 -183 -42t-67 -109q0 -64 56.5 -97t164.5 -53q93 -16 157 -37t116 -53.5t77 -81t25 -114.5q0 -83 -34 -148.5t-94 -106t-137.5 -62t-168.5 -21.5q-184 0 -302 97t-118 259h166
q8 -102 74.5 -157.5t181.5 -55.5q124 0 194 46t70 128q0 61 -58 96t-167 54q-91 16 -154.5 36t-115 53t-76.5 83t-25 118q0 148 117.5 230t302.5 82z" />
    <glyph glyph-name="uni0456" unicode="&#x456;" horiz-adv-x="393" 
d="M332 1221q-44 0 -73.5 27.5t-29.5 70.5q0 51 35 85t82 34q44 0 72 -28t28 -71q0 -51 -33.5 -84.5t-80.5 -33.5zM20 0l185 1044h168l-185 -1044h-168z" />
    <glyph glyph-name="uni0457" unicode="&#x457;" horiz-adv-x="393" 
d="M158 1417q44 0 72 -26t28 -66q0 -50 -33 -82.5t-80 -32.5q-44 0 -72 27t-28 68q0 49 32.5 80.5t80.5 31.5zM526 1417q44 0 72.5 -26t28.5 -66q0 -50 -33 -82.5t-80 -32.5q-44 0 -72 27t-28 68q0 49 32 80.5t80 31.5zM20 0l185 1044h168l-185 -1044h-168z" />
    <glyph glyph-name="uni0458" unicode="&#x458;" horiz-adv-x="405" 
d="M342 1221q-44 0 -73 27.5t-29 70.5q0 51 34.5 85t81.5 34q44 0 72.5 -28t28.5 -71q0 -51 -34 -84.5t-81 -33.5zM-285 -410l27 154h125q123 0 141 121l209 1179h168l-209 -1187q-25 -140 -97 -203.5t-216 -63.5h-148z" />
    <glyph glyph-name="uni0459" unicode="&#x459;" horiz-adv-x="1710" 
d="M-18 0h-66l25 154h43q55 0 90 17t63 68t45 144l119 661h766l-70 -380h222q194 0 291.5 -81.5t97.5 -224.5q0 -161 -109 -259.5t-301 -98.5h-485l161 905h-440l-94 -532q-35 -204 -123 -288.5t-235 -84.5zM973 520l-68 -377h299q110 0 171 54.5t61 148.5q0 174 -234 174
h-229z" />
    <glyph glyph-name="uni045A" unicode="&#x45a;" horiz-adv-x="1736" 
d="M1026 651h217q194 0 291.5 -79.5t97.5 -219.5q0 -159 -108 -255.5t-299 -96.5h-484l86 483h-553l-86 -483h-168l187 1044h168l-74 -407h553l74 407h168zM934 143h297q109 0 169 52.5t60 144.5q0 168 -233 168h-228z" />
    <glyph glyph-name="uni045B" unicode="&#x45b;" horiz-adv-x="1138" 
d="M702 1057q160 0 259.5 -88t99.5 -264q0 -59 -12 -130l-103 -575h-168l101 567q12 70 12 123q0 100 -59 156.5t-168 56.5q-148 0 -248 -104t-133 -283l-93 -516h-167l204 1155h-164l17 148h174l22 131h168l-22 -131h338l-19 -148h-346l-45 -268q137 170 352 170z" />
    <glyph glyph-name="uni045C" unicode="&#x45c;" horiz-adv-x="1054" 
d="M725 1167h-141l200 277h203zM188 0h-168l187 1044h168l-80 -434h207l407 434h197l-469 -509l315 -535h-188l-272 457h-224z" />
    <glyph glyph-name="uni045E" unicode="&#x45e;" horiz-adv-x="1009" 
d="M633 1165q-139 0 -205 74.5t-55 206.5h139q-10 -162 129 -162q81 0 128.5 42.5t59.5 119.5h140q-27 -134 -110.5 -207.5t-225.5 -73.5zM319 -8l-217 1052h170l166 -849l471 849h183l-699 -1226q-41 -72 -65.5 -108t-58 -67.5t-71 -42t-92.5 -10.5h-206l26 154h144
q70 0 106 26t78 103z" />
    <glyph glyph-name="uni045F" unicode="&#x45f;" horiz-adv-x="1099" 
d="M911 1044h168l-186 -1044h-356l-52 -276h-159l51 276h-357l187 1044h168l-160 -892h537z" />
    <glyph glyph-name="uni0490" unicode="&#x490;" horiz-adv-x="1030" 
d="M979 1434l51 284h170l-82 -448h-667l-228 -1270h-178l256 1434h678z" />
    <glyph glyph-name="uni0491" unicode="&#x491;" horiz-adv-x="819" 
d="M719 1044l49 279h168l-78 -432h-510l-160 -891h-168l187 1044h512z" />
    <glyph glyph-name="uni0E3F" unicode="&#xe3f;" horiz-adv-x="1271" 
d="M928 729q241 -57 241 -287q0 -146 -75.5 -247t-203.5 -148t-300 -47h-4l-35 -203h-156l35 203h-385l254 1434h383l37 208h155l-36 -208q187 -10 289 -102t102 -247q0 -283 -301 -356zM653 1272h-204l-82 -461h206zM1049 1073q0 88 -60.5 141.5t-179.5 57.5l-80 -461h6
q150 0 232 68t82 194zM338 651l-86 -489h207l86 489h-207zM614 162h17q171 0 264.5 69.5t93.5 206.5q0 103 -75 156.5t-214 56.5z" />
    <glyph glyph-name="Wgrave" unicode="&#x1e80;" horiz-adv-x="1966" 
d="M1102 1556l-189 279h191l125 -279h-127zM352 0l-159 1434h184l115 -1205l563 1205h180l121 -1205l547 1205h190l-666 -1434h-217l-123 1137l-522 -1137h-213z" />
    <glyph glyph-name="wgrave" unicode="&#x1e81;" horiz-adv-x="1601" 
d="M854 1167l-188 279h190l125 -279h-127zM262 0l-153 1044h172l108 -849l426 849h156l108 -849l420 849h178l-532 -1044h-184l-115 776l-400 -776h-184z" />
    <glyph glyph-name="Wacute" unicode="&#x1e82;" horiz-adv-x="1966" 
d="M1243 1559h-141l201 276h202zM352 0l-159 1434h184l115 -1205l563 1205h180l121 -1205l547 1205h190l-666 -1434h-217l-123 1137l-522 -1137h-213z" />
    <glyph glyph-name="wacute" unicode="&#x1e83;" horiz-adv-x="1601" 
d="M995 1169h-141l201 277h202zM262 0l-153 1044h172l108 -849l426 849h156l108 -849l420 849h178l-532 -1044h-184l-115 776l-400 -776h-184z" />
    <glyph glyph-name="Wdieresis" unicode="&#x1e84;" horiz-adv-x="1966" 
d="M1010 1806q44 0 72 -26t28 -66q0 -50 -33 -82.5t-80 -32.5q-44 0 -72 27t-28 68q0 49 32.5 80.5t80.5 31.5zM1378 1806q44 0 72.5 -26t28.5 -66q0 -50 -33 -82.5t-80 -32.5q-44 0 -72 27t-28 68q0 49 32 80.5t80 31.5zM352 0l-159 1434h184l115 -1205l563 1205h180
l121 -1205l547 1205h190l-666 -1434h-217l-123 1137l-522 -1137h-213z" />
    <glyph glyph-name="wdieresis" unicode="&#x1e85;" horiz-adv-x="1601" 
d="M762 1417q44 0 72 -26t28 -66q0 -50 -32.5 -82.5t-79.5 -32.5q-44 0 -72.5 27t-28.5 68q0 49 32.5 80.5t80.5 31.5zM1130 1417q44 0 72.5 -26t28.5 -66q0 -50 -33 -82.5t-80 -32.5q-44 0 -72 27t-28 68q0 49 32 80.5t80 31.5zM262 0l-153 1044h172l108 -849l426 849h156
l108 -849l420 849h178l-532 -1044h-184l-115 776l-400 -776h-184z" />
    <glyph glyph-name="Ygrave" unicode="&#x1ef2;" horiz-adv-x="1292" 
d="M758 1556l-189 279h191l125 -279h-127zM672 707l555 727h207l-701 -904l-100 -530h-170l96 530l-381 904h187z" />
    <glyph glyph-name="ygrave" unicode="&#x1ef3;" horiz-adv-x="1009" 
d="M551 1167l-189 279h191l125 -279h-127zM319 -8l-217 1052h170l166 -849l471 849h183l-699 -1226q-41 -72 -65.5 -108t-58 -67.5t-71 -42t-92.5 -10.5h-206l26 154h144q70 0 106 26t78 103z" />
    <glyph glyph-name="uni2010" unicode="&#x2010;" horiz-adv-x="894" 
d="M784 512h-682l25 139h682z" />
    <glyph glyph-name="endash" unicode="&#x2013;" horiz-adv-x="1218" 
d="M1104 512h-993l24 139h993z" />
    <glyph glyph-name="emdash" unicode="&#x2014;" horiz-adv-x="1886" 
d="M102 512l25 139h1673l-24 -139h-1674z" />
    <glyph glyph-name="uni2015" unicode="&#x2015;" horiz-adv-x="1886" 
d="M102 512l25 139h1673l-24 -139h-1674z" />
    <glyph glyph-name="quoteleft" unicode="&#x2018;" horiz-adv-x="423" 
d="M322 954q-66 0 -103 48t-37 122q0 140 93.5 229.5t242.5 92.5l-6 -96q-90 -6 -140.5 -47.5t-66.5 -98.5q-7 -25 -4 -47q21 27 66 27q44 0 72 -26.5t28 -72.5q0 -57 -39.5 -94t-105.5 -37z" />
    <glyph glyph-name="quoteright" unicode="&#x2019;" horiz-adv-x="421" 
d="M340 1446q65 0 102 -47.5t37 -122.5q0 -140 -93.5 -229.5t-242.5 -92.5l7 97q90 6 140 47t66 98q7 25 4 47q-20 -26 -65 -26q-44 0 -72 26t-28 72q0 57 39.5 94t105.5 37z" />
    <glyph glyph-name="quotesinglbase" unicode="&#x201a;" horiz-adv-x="421" 
d="M123 215q65 0 102 -47.5t37 -122.5q0 -140 -93.5 -229t-242.5 -92l6 96q90 6 140.5 47t66.5 98q7 25 4 47q-20 -26 -65 -26q-44 0 -72.5 26t-28.5 72q0 57 40 94t106 37z" />
    <glyph glyph-name="quotedblleft" unicode="&#x201c;" horiz-adv-x="778" 
d="M322 954q-66 0 -103 48t-37 122q0 140 93.5 229.5t242.5 92.5l-6 -96q-90 -6 -140.5 -47.5t-66.5 -98.5q-7 -25 -4 -47q21 27 66 27q44 0 72 -26.5t28 -72.5q0 -57 -39.5 -94t-105.5 -37zM676 954q-65 0 -102 47.5t-37 122.5q0 140 93 229.5t242 92.5l-6 -96
q-90 -6 -140.5 -47.5t-66.5 -98.5q-7 -25 -4 -47q21 27 66 27q44 0 72 -26.5t28 -72.5q0 -57 -39.5 -94t-105.5 -37z" />
    <glyph glyph-name="quotedblright" unicode="&#x201d;" horiz-adv-x="776" 
d="M340 1446q65 0 102 -47.5t37 -122.5q0 -140 -93.5 -229.5t-242.5 -92.5l7 97q90 6 140 47t66 98q7 25 4 47q-20 -26 -65 -26q-44 0 -72 26t-28 72q0 57 39.5 94t105.5 37zM694 1446q66 0 103 -48t37 -122q0 -140 -93.5 -229.5t-242.5 -92.5l6 97q90 6 140.5 47t66.5 98
q7 25 4 47q-20 -26 -66 -26q-44 0 -72 26t-28 72q0 57 39.5 94t105.5 37z" />
    <glyph glyph-name="quotedblbase" unicode="&#x201e;" horiz-adv-x="776" 
d="M123 215q65 0 102 -47.5t37 -122.5q0 -140 -93.5 -229t-242.5 -92l6 96q90 6 140.5 47t66.5 98q7 25 4 47q-20 -26 -65 -26q-44 0 -72.5 26t-28.5 72q0 57 40 94t106 37zM477 215q65 0 102 -47.5t37 -122.5q0 -140 -93 -229t-242 -92l6 96q90 6 140.5 47t66.5 98
q7 25 4 47q-20 -26 -66 -26q-44 0 -72 26t-28 72q0 57 39.5 94t105.5 37z" />
    <glyph glyph-name="dagger" unicode="&#x2020;" horiz-adv-x="1058" 
d="M688 1001h383l-24 -143h-385l-152 -858h-150l152 858h-385l25 143h387l75 433h150z" />
    <glyph glyph-name="daggerdbl" unicode="&#x2021;" horiz-adv-x="1114" 
d="M1122 1075l-26 -143h-391l-78 -430h393l-25 -144h-393l-63 -358h-152l64 358h-394l25 144h393l78 430h-395l26 143h394l63 359h152l-64 -359h393z" />
    <glyph glyph-name="bullet" unicode="&#x2022;" horiz-adv-x="829" 
d="M406 428q-109 1 -175.5 69t-66.5 175q0 131 94 218t221 87q110 0 178 -65.5t68 -172.5q0 -134 -95 -223.5t-224 -87.5z" />
    <glyph glyph-name="ellipsis" unicode="&#x2026;" horiz-adv-x="1208" 
d="M150 215q46 0 74 -27t28 -71q0 -56 -39.5 -93.5t-93.5 -35.5q-46 2 -73.5 29t-27.5 71q0 55 39.5 91t92.5 36zM543 215q46 0 74 -27t28 -71q0 -56 -39.5 -93.5t-93.5 -35.5q-46 2 -73 29t-27 71q0 55 39 91t92 36zM936 215q46 0 74 -27t28 -71q0 -56 -39.5 -93.5
t-93.5 -35.5q-46 2 -73 29t-27 71q0 55 39 91t92 36z" />
    <glyph glyph-name="perthousand" unicode="&#x2030;" horiz-adv-x="2639" 
d="M532 752q-147 0 -235 83t-88 220q0 159 115 275t280 116q147 0 235.5 -83t88.5 -220q0 -159 -115.5 -275t-280.5 -116zM428 0h-170l1219 1434h170zM537 887q103 0 173 74.5t70 173.5q0 78 -49.5 127t-130.5 49q-103 0 -173.5 -74.5t-70.5 -173.5q0 -78 50 -127t131 -49z
M1300 -12q-147 0 -235 83t-88 220q0 159 115 275t280 116q147 0 235.5 -83t88.5 -220q0 -159 -115.5 -275t-280.5 -116zM2103 -12q-147 0 -235 83t-88 220q0 159 115 275t280 116q147 0 235.5 -83t88.5 -220q0 -159 -115.5 -275t-280.5 -116zM1305 123q103 0 173 74.5
t70 173.5q0 78 -49.5 127t-130.5 49q-103 0 -173.5 -74.5t-70.5 -173.5q0 -78 50 -127t131 -49zM2107 123q103 0 173.5 74.5t70.5 173.5q0 78 -49.5 127t-130.5 49q-103 0 -173.5 -74.5t-70.5 -173.5q0 -78 49.5 -127t130.5 -49z" />
    <glyph glyph-name="second" unicode="&#x2033;" horiz-adv-x="759" 
d="M324 1047h-109l107 387h157zM670 1047h-111l109 387h157z" />
    <glyph glyph-name="guilsinglleft" unicode="&#x2039;" horiz-adv-x="630" 
d="M479 1044h174l-415 -522l225 -522h-164l-236 522z" />
    <glyph glyph-name="guilsinglright" unicode="&#x203a;" horiz-adv-x="630" 
d="M152 0h-175l416 522l-225 522h164l235 -522z" />
    <glyph glyph-name="uni2042" unicode="&#x2042;" horiz-adv-x="1957" 
d="M1360 1362l29 -117l-271 -94l139 -203l-96 -78l-137 215l-205 -215l-82 82l207 203l-233 92l65 115l221 -109l43 263h117l-53 -265zM743 393l29 -117l-270 -94l139 -202l-96 -78l-137 215l-205 -215l-82 82l207 202l-234 93l66 114l221 -108l43 262h117l-54 -264z
M1747 393l29 -117l-271 -94l140 -202l-97 -78l-137 215l-205 -215l-82 82l207 202l-233 93l65 114l221 -108l43 262h117l-53 -264z" />
    <glyph glyph-name="fraction" unicode="&#x2044;" horiz-adv-x="382" 
d="M-287 0h-139l1161 1434h142z" />
    <glyph glyph-name="uni2051" unicode="&#x2051;" horiz-adv-x="956" 
d="M915 1362l29 -117l-270 -94l139 -203l-96 -78l-137 215l-205 -215l-82 82l207 203l-234 92l66 115l221 -109l43 263h117l-54 -265zM743 391l29 -117l-270 -94l139 -203l-96 -77l-137 215l-205 -215l-82 82l207 202l-234 92l66 115l221 -108l43 262h117l-54 -264z" />
    <glyph glyph-name="uni2070" unicode="&#x2070;" horiz-adv-x="700" 
d="M537 1653q125 0 190.5 -78t65.5 -215q0 -121 -43.5 -229t-129 -178t-194.5 -70q-125 0 -190.5 78t-65.5 215q0 121 43.5 229t129 178t194.5 70zM535 1548q-74 0 -131.5 -59t-85 -142t-27.5 -169q0 -82 37 -136.5t100 -54.5q74 0 131.5 59.5t85 142.5t27.5 169
q0 82 -37 136t-100 54z" />
    <glyph glyph-name="uni2074" unicode="&#x2074;" horiz-adv-x="677" 
d="M143 1186l430 452h146l-80 -456h121l-19 -105h-120l-33 -184h-115l33 184h-379zM524 1182l58 325l-303 -325h245z" />
    <glyph glyph-name="uni2075" unicode="&#x2075;" horiz-adv-x="643" 
d="M281 1638h464l-20 -104h-375l-47 -207q66 66 174 66q101 0 164.5 -61.5t63.5 -155.5q0 -134 -85 -214.5t-217 -80.5q-127 0 -189.5 66t-57.5 159h112q0 -55 41.5 -88t100.5 -33q76 0 125 49.5t49 120.5q0 63 -38 98t-97 35q-52 0 -93 -23.5t-61 -60.5h-111z" />
    <glyph glyph-name="uni2076" unicode="&#x2076;" horiz-adv-x="661" 
d="M539 1653q103 0 167.5 -59.5t61.5 -159.5h-111q-5 114 -122 114q-91 0 -157 -68t-91 -190q-4 -20 -4 -26q58 112 215 112q102 0 166.5 -55.5t64.5 -146.5q0 -130 -86.5 -210.5t-222.5 -80.5q-127 0 -191.5 73.5t-64.5 200.5q0 126 44 238t131.5 185t199.5 73zM475 1278
q-82 0 -134 -47.5t-52 -122.5q0 -60 37.5 -91.5t97.5 -31.5q82 0 133 46.5t51 123.5q0 60 -37 91.5t-96 31.5z" />
    <glyph glyph-name="uni2077" unicode="&#x2077;" horiz-adv-x="593" 
d="M186 1532l19 104h534l-14 -100l-428 -645h-131l428 641h-408z" />
    <glyph glyph-name="uni2078" unicode="&#x2078;" horiz-adv-x="669" 
d="M522 1653q108 0 176 -52.5t68 -134.5q0 -74 -38 -118.5t-110 -69.5q49 -14 80 -56.5t31 -101.5q0 -103 -87 -170t-226 -67q-124 0 -198.5 54t-74.5 142q0 72 50 127.5t133 79.5q-43 15 -72 51t-29 88q0 98 86 163t211 65zM514 1552q-74 0 -122 -37t-48 -90q0 -50 38 -75
t95 -25q75 0 122.5 37.5t47.5 89.5q0 47 -38 73.5t-95 26.5zM449 1227q-84 0 -134.5 -37.5t-50.5 -93.5q0 -54 46 -82.5t114 -28.5q84 0 134 37.5t50 93.5q0 54 -45.5 82.5t-113.5 28.5z" />
    <glyph glyph-name="uni2079" unicode="&#x2079;" horiz-adv-x="663" 
d="M383 883q-103 0 -167.5 59.5t-61.5 159.5h110q5 -115 123 -115q91 0 159 70t91 188q2 10 2 25q-57 -111 -215 -111q-102 0 -166.5 56t-64.5 147q0 130 86.5 210.5t222.5 80.5q127 0 191.5 -74t64.5 -201q0 -126 -44 -238t-131.5 -184.5t-199.5 -72.5zM446 1257
q82 0 134.5 47.5t52.5 122.5q0 60 -37.5 91.5t-97.5 31.5q-83 0 -134 -46.5t-51 -123.5q0 -60 37 -91.5t96 -31.5z" />
    <glyph glyph-name="uni2080" unicode="&#x2080;" horiz-adv-x="700" 
d="M342 553q125 0 190.5 -78t65.5 -215q0 -121 -43.5 -229t-129 -178t-194.5 -70q-125 0 -190.5 78t-65.5 215q0 121 43.5 229t129 178t194.5 70zM340 449q-74 0 -131.5 -59.5t-85 -142.5t-27.5 -169q0 -82 37 -136.5t100 -54.5q74 0 131.5 59.5t85 142.5t27.5 169
q0 82 -37 136.5t-100 54.5z" />
    <glyph glyph-name="uni2081" unicode="&#x2081;" horiz-adv-x="423" 
d="M313 541l-131 -746h-114l86 496q-17 -17 -50 -17h-127l21 113h106q39 0 56.5 15.5t23.5 48.5l17 90h112z" />
    <glyph glyph-name="uni2082" unicode="&#x2082;" horiz-adv-x="645" 
d="M311 553q114 0 178 -54.5t64 -150.5q0 -46 -14 -85t-42.5 -72.5t-57 -58t-72.5 -54.5l-250 -170h368l-20 -113h-545l17 107l344 237q81 57 116 99.5t35 99.5q0 53 -34 82t-91 29q-71 0 -120.5 -46.5t-63.5 -121.5h-115q19 128 100.5 200t202.5 72z" />
    <glyph glyph-name="uni2083" unicode="&#x2083;" horiz-adv-x="665" 
d="M141 319h-114q20 112 99.5 173t192.5 61q111 0 178.5 -55t67.5 -138q0 -73 -42 -118.5t-109 -61.5q50 -11 80 -50t30 -97q0 -108 -80.5 -179t-228.5 -71q-123 0 -191.5 64t-68.5 184h115q0 -70 41.5 -107t115.5 -37q79 0 127.5 39.5t48.5 104.5q0 104 -149 104h-51l16 86
h57q77 0 122.5 34t45.5 97q0 43 -37 70t-92 27q-71 0 -117 -36.5t-57 -93.5z" />
    <glyph glyph-name="uni2084" unicode="&#x2084;" horiz-adv-x="677" 
d="M-51 88l430 453h145l-80 -457h121l-18 -104h-121l-33 -185h-114l32 185h-379zM330 84l57 326l-303 -326h246z" />
    <glyph glyph-name="uni2085" unicode="&#x2085;" horiz-adv-x="643" 
d="M86 541h465l-21 -105h-374l-47 -207q66 66 174 66q101 0 164 -61.5t63 -155.5q0 -134 -85 -214.5t-216 -80.5q-127 0 -190 66t-58 159h113q0 -55 41 -88t100 -33q76 0 125 49.5t49 120.5q0 63 -38 98t-97 35q-52 0 -93 -23.5t-61 -60.5h-110z" />
    <glyph glyph-name="uni2086" unicode="&#x2086;" horiz-adv-x="661" 
d="M344 553q103 0 167.5 -59.5t61.5 -159.5h-110q-5 115 -123 115q-91 0 -157 -68.5t-91 -190.5q-4 -20 -4 -26q58 112 215 112q102 0 167 -55.5t65 -146.5q0 -130 -87 -210.5t-223 -80.5q-127 0 -191.5 73.5t-64.5 200.5q0 126 44 238t131.5 185t199.5 73zM281 178
q-82 0 -134.5 -47.5t-52.5 -122.5q0 -60 37.5 -91.5t97.5 -31.5q83 0 134 46.5t51 123.5q0 60 -37 91.5t-96 31.5z" />
    <glyph glyph-name="uni2087" unicode="&#x2087;" horiz-adv-x="593" 
d="M-8 436l18 105h535l-15 -101l-428 -645h-131l428 641h-407z" />
    <glyph glyph-name="uni2088" unicode="&#x2088;" horiz-adv-x="669" 
d="M328 553q108 0 175.5 -52t67.5 -134q0 -75 -37.5 -119.5t-109.5 -69.5q49 -14 80 -56.5t31 -101.5q0 -102 -87.5 -169.5t-226.5 -67.5q-124 0 -198 54.5t-74 142.5q0 72 49.5 127t132.5 79q-43 15 -71.5 51.5t-28.5 88.5q0 98 86 162.5t211 64.5zM319 453
q-74 0 -121.5 -37t-47.5 -90q0 -50 38 -75.5t95 -25.5q75 0 122.5 37.5t47.5 89.5q0 47 -38.5 74t-95.5 27zM254 127q-84 0 -134 -37.5t-50 -93.5q0 -54 45.5 -82.5t113.5 -28.5q84 0 134.5 37.5t50.5 93.5q0 54 -46 82.5t-114 28.5z" />
    <glyph glyph-name="uni2089" unicode="&#x2089;" horiz-adv-x="663" 
d="M188 -217q-103 0 -167.5 59.5t-61.5 159.5h111q5 -115 123 -115q91 0 158.5 70t90.5 188q2 10 2 25q-57 -111 -215 -111q-102 0 -166.5 56t-64.5 147q0 130 86.5 210.5t222.5 80.5q127 0 191.5 -73.5t64.5 -200.5q0 -126 -44 -238t-131.5 -185t-199.5 -73zM252 158
q82 0 134 47.5t52 122.5q0 60 -37.5 91.5t-97.5 31.5q-82 0 -133 -46.5t-51 -123.5q0 -60 37 -91.5t96 -31.5z" />
    <glyph glyph-name="franc" unicode="&#x20a3;" horiz-adv-x="1107" 
d="M1217 1434l-31 -164h-703l-84 -479h580l-29 -164h-579l-41 -230h305l-29 -157h-303l-43 -240h-178l43 240h-180l28 157h179l184 1037h881z" />
    <glyph glyph-name="uni20A8" unicode="&#x20a8;" horiz-adv-x="1341" 
d="M268 1270l31 164h1118l-45 -131h-346q111 -103 111 -244h190l-39 -139h-166q-32 -152 -134.5 -241.5t-231.5 -105.5l215 -573h-201l-199 551h-428l29 164h418q285 0 346 205h-727l24 139h719q0 98 -71 154.5t-193 56.5h-420z" />
    <glyph glyph-name="Euro" unicode="&#x20ac;" horiz-adv-x="1353" 
d="M696 152q140 0 240.5 77.5t150.5 221.5h181q-65 -216 -213.5 -339.5t-366.5 -123.5q-221 0 -350 135t-143 373h-160l22 139h138q6 72 18 143h-125l23 140h135q72 239 235 383.5t396 144.5q117 0 205.5 -34.5t143.5 -98t84 -146.5t33 -186h-178q-18 151 -87 226t-216 75
q-151 0 -260 -97t-168 -267h365l-45 -140h-357q-13 -59 -20 -143h368l-45 -139h-325q21 -344 321 -344z" />
    <glyph glyph-name="uni20BD" unicode="&#x20bd;" horiz-adv-x="1372" 
d="M840 551h-383l-29 -164h514l-29 -164h-516l-39 -223h-178l39 223h-219l29 164h219l31 164h-222l29 164h221l127 719h506q209 0 324.5 -113t115.5 -289q0 -227 -149 -354t-391 -127zM926 1270h-344l-97 -555h351q164 0 263 81.5t99 237.5q0 113 -73 174.5t-199 61.5z" />
    <glyph glyph-name="uni20BF" unicode="&#x20bf;" horiz-adv-x="1255" 
d="M461 1434l37 215h147l-37 -215h146l37 215h147l-41 -222q149 -20 232 -110t83 -232q0 -283 -301 -356q242 -58 242 -287q0 -103 -38.5 -185t-107.5 -135t-159.5 -83t-200.5 -37l-35 -199h-147l35 197h-148l-35 -197h-147l35 197h-160l254 1434h162zM770 1272h-321
l-82 -461h352q150 0 231.5 68t81.5 194q0 92 -66 145.5t-196 53.5zM252 162h362q171 0 265 69.5t94 206.5q0 106 -78 159.5t-223 53.5h-334z" />
    <glyph glyph-name="uni2116" unicode="&#x2116;" horiz-adv-x="2332" 
d="M1784 485q-193 0 -306.5 112.5t-113.5 303.5q0 149 65.5 273.5t184.5 198t266 73.5q192 0 306 -112t114 -304q0 -149 -65 -273t-184 -198t-267 -74zM221 0h-176l252 1434h156l483 -1104l194 1104h177l-252 -1434h-156l-485 1104zM1794 631q95 0 172 53.5t119.5 142.5
t42.5 193q0 129 -67.5 204.5t-190.5 75.5q-95 0 -172 -53.5t-119.5 -142.5t-42.5 -193q0 -129 67.5 -204.5t190.5 -75.5z" />
    <glyph glyph-name="trademark" unicode="&#x2122;" horiz-adv-x="1404" 
d="M172 1323l21 111h487l-21 -111h-182l-78 -440h-123l78 440h-182zM645 883l98 551h166l107 -402l252 402h170l-99 -551h-114l75 415l-258 -415h-100l-106 415l-76 -415h-115z" />
    <glyph glyph-name="uni2126" unicode="&#x2126;" horiz-adv-x="1505" 
d="M524 0h-516l31 164h356l13 63q-148 102 -209.5 218.5t-63.5 279.5q-1 144 52.5 275.5t148.5 230t233.5 157t298.5 58.5q171 0 307.5 -69.5t214.5 -199t78 -298.5q0 -230 -124.5 -404t-342.5 -252l-12 -59h363l-29 -164h-518l51 289q209 95 320.5 244.5t111.5 345.5
q0 180 -121 291.5t-313 111.5q-160 0 -285 -78t-190.5 -205.5t-65.5 -277.5q0 -137 62 -235t200 -195z" />
    <glyph glyph-name="uni2153" unicode="&#x2153;" horiz-adv-x="1507" 
d="M471 1436l-131 -746h-115l86 496q-17 -17 -49 -17h-127l21 113h106q39 0 56.5 15.5t23.5 48.5l16 90h113zM172 0h-139l1161 1434h141zM1020 524h-115q20 112 100 173t193 61q111 0 178.5 -55t67.5 -138q0 -73 -42.5 -118.5t-109.5 -61.5q50 -11 80.5 -50t30.5 -97
q0 -108 -80.5 -179t-228.5 -71q-123 0 -191.5 64t-68.5 184h114q0 -70 42 -107t116 -37q79 0 127.5 39.5t48.5 104.5q0 104 -149 104h-52l17 86h57q77 0 122.5 34t45.5 97q0 43 -37 69.5t-92 26.5q-71 0 -117 -36.5t-57 -92.5z" />
    <glyph glyph-name="uni2155" unicode="&#x2155;" horiz-adv-x="1484" 
d="M471 1436l-131 -746h-115l86 496q-17 -17 -49 -17h-127l21 113h106q39 0 56.5 15.5t23.5 48.5l16 90h113zM172 0h-139l1161 1434h141zM965 745h465l-21 -104h-375l-47 -207q66 66 174 66q101 0 164.5 -61.5t63.5 -155.5q0 -134 -85 -214.5t-217 -80.5q-127 0 -189.5 66
t-57.5 159h112q0 -55 41.5 -88t100.5 -33q76 0 125 49.5t49 120.5q0 63 -38 98t-97 35q-52 0 -93 -23.5t-61 -60.5h-111z" />
    <glyph glyph-name="uni2156" unicode="&#x2156;" horiz-adv-x="1679" 
d="M469 1446q114 0 178 -54.5t64 -150.5q0 -46 -14 -85t-43 -72.5t-57.5 -57.5t-72.5 -55l-250 -170h369l-20 -113h-545l16 107l344 237q82 57 117 100t35 99q0 53 -34 81.5t-91 28.5q-71 0 -120.5 -46t-63.5 -121h-115q19 128 100.5 200t202.5 72zM367 0h-140l1162 1434
h141zM1159 745h465l-20 -104h-375l-47 -207q66 66 174 66q101 0 164 -61.5t63 -155.5q0 -134 -85 -214.5t-216 -80.5q-127 0 -190 66t-58 159h113q0 -55 41 -88t100 -33q76 0 125 49.5t49 120.5q0 63 -38 98t-97 35q-52 0 -92.5 -23.5t-60.5 -60.5h-111z" />
    <glyph glyph-name="uni2157" unicode="&#x2157;" horiz-adv-x="1691" 
d="M301 1217h-115q20 112 100 172.5t193 60.5q111 0 178.5 -55t67.5 -138q0 -73 -42.5 -118.5t-109.5 -61.5q50 -11 80.5 -50t30.5 -97q0 -108 -80.5 -179t-228.5 -71q-123 0 -191.5 64t-68.5 184h114q0 -70 42 -107t116 -37q79 0 127.5 39.5t48.5 104.5q0 104 -149 104h-52
l17 86h57q77 0 122.5 34t45.5 97q0 43 -37 70t-92 27q-71 0 -117 -36.5t-57 -92.5zM379 0h-139l1161 1434h141zM1171 745h465l-20 -104h-375l-47 -207q66 66 174 66q101 0 164 -61.5t63 -155.5q0 -134 -85 -214.5t-216 -80.5q-127 0 -189.5 66t-57.5 159h112q0 -55 41 -88
t100 -33q76 0 125.5 49.5t49.5 120.5q0 62 -38.5 97.5t-97.5 35.5q-52 0 -92.5 -23.5t-60.5 -60.5h-111z" />
    <glyph glyph-name="uni2158" unicode="&#x2158;" horiz-adv-x="1703" 
d="M106 981l431 453h145l-80 -457h121l-18 -105h-121l-33 -184h-115l33 184h-379zM391 0h-139l1161 1434h141zM487 977l58 326l-303 -326h245zM1184 745h465l-21 -104h-375l-47 -207q66 66 174 66q101 0 164.5 -61.5t63.5 -155.5q0 -134 -85 -214.5t-216 -80.5
q-127 0 -190 66t-58 159h112q0 -55 41.5 -88t100.5 -33q76 0 125 49.5t49 120.5q0 63 -38 98t-97 35q-52 0 -93 -23.5t-61 -60.5h-111z" />
    <glyph glyph-name="uni2159" unicode="&#x2159;" horiz-adv-x="1503" 
d="M471 1436l-131 -746h-115l86 496q-17 -17 -49 -17h-127l21 113h106q39 0 56.5 15.5t23.5 48.5l16 90h113zM172 0h-139l1161 1434h141zM1223 758q103 0 167.5 -59.5t61.5 -159.5h-111q-5 114 -122 114q-91 0 -157 -68t-91 -190q-4 -20 -4 -26q58 112 215 112
q102 0 166.5 -55.5t64.5 -146.5q0 -130 -86.5 -210.5t-222.5 -80.5q-127 0 -191.5 73.5t-64.5 200.5q0 126 44 238t131.5 185t199.5 73zM1159 383q-82 0 -134 -47.5t-52 -122.5q0 -60 37.5 -91.5t97.5 -31.5q82 0 133 46.5t51 123.5q0 60 -37 91.5t-96 31.5z" />
    <glyph glyph-name="oneeighth" unicode="&#x215b;" horiz-adv-x="1511" 
d="M471 1436l-131 -746h-115l86 496q-17 -17 -49 -17h-127l21 113h106q39 0 56.5 15.5t23.5 48.5l16 90h113zM172 0h-139l1161 1434h141zM1206 758q108 0 176 -52.5t68 -134.5q0 -74 -37.5 -118.5t-109.5 -69.5q48 -14 79 -56.5t31 -101.5q0 -103 -87 -170t-226 -67
q-124 0 -198.5 54t-74.5 142q0 72 50 127.5t133 79.5q-43 15 -72 51t-29 88q0 98 86 163t211 65zM1198 657q-74 0 -122 -37t-48 -90q0 -50 38 -75t95 -25q75 0 122.5 37.5t47.5 89.5q0 47 -38 73.5t-95 26.5zM1133 332q-84 0 -134.5 -37.5t-50.5 -93.5q0 -54 46 -82.5
t114 -28.5q84 0 134 37.5t50 93.5q0 54 -45.5 82.5t-113.5 28.5z" />
    <glyph glyph-name="threeeighths" unicode="&#x215c;" horiz-adv-x="1718" 
d="M301 1217h-115q20 112 100 172.5t193 60.5q111 0 178.5 -55t67.5 -138q0 -73 -42.5 -118.5t-109.5 -61.5q50 -11 80.5 -50t30.5 -97q0 -108 -80.5 -179t-228.5 -71q-123 0 -191.5 64t-68.5 184h114q0 -70 42 -107t116 -37q79 0 127.5 39.5t48.5 104.5q0 104 -149 104h-52
l17 86h57q77 0 122.5 34t45.5 97q0 43 -37 70t-92 27q-71 0 -117 -36.5t-57 -92.5zM379 0h-139l1161 1434h141zM1413 758q108 0 176 -52.5t68 -134.5q0 -74 -38 -118.5t-110 -69.5q49 -14 80 -56.5t31 -101.5q0 -103 -87 -170t-226 -67q-124 0 -198.5 54t-74.5 142
q0 72 50 127.5t133 79.5q-43 15 -72 51t-29 88q0 98 86 163t211 65zM1405 657q-74 0 -122 -37t-48 -90q0 -50 38 -75t95 -25q75 0 122.5 37.5t47.5 89.5q0 47 -38 73.5t-95 26.5zM1339 332q-84 0 -134 -37.5t-50 -93.5q0 -54 46 -82.5t114 -28.5q84 0 134 37.5t50 93.5
q0 54 -46 82.5t-114 28.5z" />
    <glyph glyph-name="fiveeighths" unicode="&#x215d;" horiz-adv-x="1695" 
d="M244 1434h465l-21 -105h-375l-47 -207q66 66 174 66q101 0 164.5 -61.5t63.5 -155.5q0 -134 -85 -214.5t-216 -80.5q-127 0 -190 66t-58 159h112q0 -55 41.5 -88t100.5 -33q76 0 125 49.5t49 120.5q0 63 -38 98t-97 35q-52 0 -93 -23.5t-61 -60.5h-111zM356 0h-139
l1161 1434h142zM1391 758q108 0 175.5 -52.5t67.5 -134.5q0 -74 -37.5 -118.5t-109.5 -69.5q48 -14 79 -56.5t31 -101.5q0 -103 -87 -170t-226 -67q-124 0 -198 54t-74 142q0 73 49.5 128t132.5 79q-43 15 -71.5 51t-28.5 88q0 98 86 163t211 65zM1382 657q-74 0 -122 -37
t-48 -90q0 -49 38.5 -74.5t95.5 -25.5q75 0 122.5 37.5t47.5 89.5q0 47 -38.5 73.5t-95.5 26.5zM1317 332q-84 0 -134 -37.5t-50 -93.5q0 -54 45.5 -82.5t113.5 -28.5q84 0 134.5 37.5t50.5 93.5q0 54 -46 82.5t-114 28.5z" />
    <glyph glyph-name="seveneighths" unicode="&#x215e;" horiz-adv-x="1593" 
d="M254 0h-139l1161 1434h141zM150 1327l18 105h534l-14 -101l-428 -645h-131l428 641h-407zM1288 758q108 0 176 -52.5t68 -134.5q0 -74 -38 -118.5t-110 -69.5q49 -14 80 -56.5t31 -101.5q0 -103 -87 -170t-226 -67q-124 0 -198.5 54t-74.5 142q0 72 50 127.5t133 79.5
q-43 15 -72 51t-29 88q0 98 86 163t211 65zM1280 657q-74 0 -122 -37t-48 -90q0 -50 38 -75t95 -25q75 0 122.5 37.5t47.5 89.5q0 47 -38 73.5t-95 26.5zM1214 332q-84 0 -134 -37.5t-50 -93.5q0 -54 46 -82.5t114 -28.5q84 0 134 37.5t50 93.5q0 54 -46 82.5t-114 28.5z
" />
    <glyph glyph-name="arrowleft" unicode="&#x2190;" horiz-adv-x="1355" 
d="M123 584l567 565l107 -107l-383 -383h833v-151h-833l383 -383l-107 -107z" />
    <glyph glyph-name="arrowup" unicode="&#x2191;" horiz-adv-x="1318" 
d="M735 66h-151v833l-383 -383l-107 107l565 565l566 -565l-107 -107l-383 383v-833z" />
    <glyph glyph-name="arrowright" unicode="&#x2192;" horiz-adv-x="1357" 
d="M1255 584l-567 -566l-106 107l383 383h-834v151h834l-383 383l106 107z" />
    <glyph glyph-name="arrowdown" unicode="&#x2193;" horiz-adv-x="1318" 
d="M584 354v834h151v-834l383 383l107 -106l-566 -565l-565 565l107 106z" />
    <glyph glyph-name="arrowboth" unicode="&#x2194;" horiz-adv-x="1816" 
d="M756 166l-107 -107l-526 525l526 524l107 -107l-342 -342h1009l-342 342l107 107l526 -524l-526 -525l-107 107l342 342h-1009z" />
    <glyph glyph-name="arrowupdn" unicode="&#x2195;" horiz-adv-x="1320" 
d="M1200 471l-524 -526l-524 526l106 107l342 -342l-2 950l-342 -342l-104 106l522 527l526 -527l-106 -106l-344 342l2 -950l342 342z" />
    <glyph glyph-name="uni2196" unicode="&#x2196;" horiz-adv-x="1220" 
d="M492 899l612 -610l-107 -107l-610 611v-543h-151v801h800v-152h-544z" />
    <glyph glyph-name="uni2197" unicode="&#x2197;" horiz-adv-x="1161" 
d="M817 788l-610 -612l-107 107l611 610h-543v151h801v-800h-152v544z" />
    <glyph glyph-name="uni2198" unicode="&#x2198;" horiz-adv-x="1220" 
d="M760 322l-613 610l107 106l610 -610v543h152v-801h-801v152h545z" />
    <glyph glyph-name="uni2199" unicode="&#x2199;" horiz-adv-x="1161" 
d="M375 432l610 612l107 -106l-611 -610h543v-152h-801v801h152v-545z" />
    <glyph glyph-name="partialdiff" unicode="&#x2202;" horiz-adv-x="1198" 
d="M625 958q212 0 325 -137q-95 456 -573 471l16 152q155 0 280 -45.5t205.5 -120t134.5 -176t76.5 -208t22.5 -220.5q0 -145 -40 -270t-113.5 -217.5t-185.5 -145.5t-249 -53q-208 0 -334.5 109.5t-126.5 287.5q0 160 73 291.5t202 206.5t287 75zM633 811q-163 0 -280 -113
t-117 -284q0 -124 76.5 -201.5t207.5 -77.5q173 0 291.5 112.5t118.5 291.5q0 121 -85 196.5t-212 75.5z" />
    <glyph glyph-name="emptyset" unicode="&#x2205;" horiz-adv-x="1245" 
d="M1165 1282l88 -98l-133 -117q82 -118 82 -274q0 -163 -79.5 -301.5t-216 -218.5t-296.5 -80q-210 0 -346 120l-127 -112l-88 98l131 117q-63 108 -63 246q0 123 47 234.5t126 191.5t188 127t229 47q190 0 321 -101zM287 668q0 -76 24 -138l596 525q-85 57 -202 57
q-115 0 -212 -62.5t-151.5 -164.5t-54.5 -217zM1034 784q0 98 -41 172l-606 -536q88 -78 227 -78q114 0 211 61.5t153 163.5t56 217z" />
    <glyph glyph-name="uni2206" unicode="&#x2206;" horiz-adv-x="1390" 
d="M1247 0h-1294l20 117l783 1317h202l310 -1317zM827 1249l-630 -1085h878z" />
    <glyph glyph-name="product" unicode="&#x220f;" horiz-adv-x="1515" 
d="M225 1434h1385l-31 -164h-186l-263 -1487h-178l262 1487h-655l-262 -1487h-178l262 1487h-186z" />
    <glyph glyph-name="summation" unicode="&#x2211;" horiz-adv-x="1263" 
d="M-53 -217l24 147l711 707l-426 649l25 148h1044l-29 -156h-827l391 -600l-14 -98l-643 -641h874l-28 -156h-1102z" />
    <glyph glyph-name="minus" unicode="&#x2212;" horiz-adv-x="1073" 
d="M954 516h-835l24 141h836z" />
    <glyph glyph-name="radical" unicode="&#x221a;" horiz-adv-x="1189" 
d="M426 0l-182 748l-129 -39l-37 141l284 92l175 -735l591 1227h172l-694 -1434h-180z" />
    <glyph glyph-name="infinity" unicode="&#x221e;" horiz-adv-x="1640" 
d="M1268 979q149 0 231 -89t82 -228q0 -124 -55 -231t-154.5 -171.5t-220.5 -64.5q-113 0 -190 58.5t-150 207.5q-131 -154 -223.5 -210t-200.5 -56q-147 0 -228 88.5t-81 228.5q0 125 55 232t153.5 171t217.5 64q115 0 191.5 -58t148.5 -206q131 152 224 208t200 56z
M508 827q-123 0 -200 -93.5t-77 -219.5q0 -80 44.5 -124t123.5 -44q82 0 156 54t188 196q-61 132 -111.5 181.5t-123.5 49.5zM1255 827q-82 0 -156 -53.5t-188 -195.5q59 -132 111 -182t125 -50q123 0 200.5 93.5t77.5 217.5q0 79 -44.5 124.5t-125.5 45.5z" />
    <glyph glyph-name="integral" unicode="&#x222b;" horiz-adv-x="802" 
d="M-72 -217l29 154h135q64 0 97 29t44 91l197 1110q24 143 87.5 205t205.5 62h178l-29 -154h-135q-64 0 -97 -29.5t-44 -91.5l-197 -1110q-26 -144 -89 -205t-204 -61h-178z" />
    <glyph glyph-name="approxequal" unicode="&#x2248;" horiz-adv-x="1075" 
d="M287 629h-140q24 143 97 218t180 75q53 0 94 -14.5t66.5 -35.5t47.5 -42t47.5 -35.5t55.5 -14.5q114 0 148 144h139q-24 -143 -97 -217t-182 -74q-53 0 -94 14.5t-66.5 34.5t-47 40.5t-47.5 35t-56 14.5q-112 0 -145 -143zM205 182h-139q24 144 97 218.5t179 74.5
q53 0 94 -14.5t66.5 -35.5t47.5 -41.5t47.5 -35t55.5 -14.5q114 0 148 143h139q-24 -143 -96.5 -217t-181.5 -74q-53 0 -94 14.5t-66.5 35t-47.5 41t-48 35t-56 14.5q-112 0 -145 -144z" />
    <glyph glyph-name="notequal" unicode="&#x2260;" horiz-adv-x="1073" 
d="M993 850l-26 -143h-273l-147 -285h371l-25 -141h-418l-104 -203h-152l105 203h-226l25 141h272l148 285h-371l27 143h417l99 192h151l-98 -192h225z" />
    <glyph glyph-name="lessequal" unicode="&#x2264;" horiz-adv-x="1073" 
d="M877 252l-717 348l26 160l840 348l-27 -164l-639 -264l543 -264zM831 0h-778l25 143h778z" />
    <glyph glyph-name="greaterequal" unicode="&#x2265;" horiz-adv-x="1073" 
d="M252 1108l717 -348l-27 -160l-840 -348l27 164l637 264l-541 264zM836 0h-779l25 143h778z" />
    <glyph glyph-name="dotmath" unicode="&#x22c5;" horiz-adv-x="419" 
d="M233 696q46 0 74.5 -27t28.5 -71q0 -56 -39.5 -93.5t-93.5 -35.5q-46 2 -73.5 29t-27.5 71q0 55 39 91t92 36z" />
    <glyph glyph-name="filledbox" unicode="&#x25a0;" horiz-adv-x="1970" 
d="M297 0v1434h1442v-1434h-1442z" />
    <glyph glyph-name="uni25A1" unicode="&#x25a1;" horiz-adv-x="1964" 
d="M297 0v1434h1436v-1434h-1436zM1563 1278h-1096v-1122h1096v1122z" />
    <glyph glyph-name="uni25AF" unicode="&#x25af;" horiz-adv-x="1488" 
d="M297 0v1434h960v-1434h-960zM1085 1278h-618v-1122h618v1122z" />
    <glyph glyph-name="triagup" unicode="&#x25b2;" horiz-adv-x="1732" 
d="M-66 0l842 1458l838 -1458h-1680z" />
    <glyph glyph-name="uni25B3" unicode="&#x25b3;" horiz-adv-x="1732" 
d="M-66 0l842 1458l838 -1458h-1680zM1346 154l-570 989l-573 -989h1143z" />
    <glyph glyph-name="uni25B6" unicode="&#x25b6;" horiz-adv-x="1138" 
d="M203 -12v1048l913 -524z" />
    <glyph glyph-name="uni25B7" unicode="&#x25b7;" horiz-adv-x="1155" 
d="M209 -10v1065l928 -533zM336 842v-637l557 317z" />
    <glyph glyph-name="uni25C0" unicode="&#x25c0;" horiz-adv-x="1138" 
d="M18 512l914 524v-1048z" />
    <glyph glyph-name="uni25C1" unicode="&#x25c1;" horiz-adv-x="1155" 
d="M20 522l928 533v-1065zM264 522l557 -317v637z" />
    <glyph glyph-name="lozenge" unicode="&#x25ca;" horiz-adv-x="1224" 
d="M655 1434h215l293 -717l-526 -717h-215l-295 717zM322 717l221 -578l426 578l-221 579z" />
    <glyph glyph-name="circle" unicode="&#x25cb;" horiz-adv-x="1658" 
d="M864 1446q207 0 375.5 -95t264 -262t95.5 -372t-95.5 -372t-264 -262t-375.5 -95q-208 0 -376.5 95t-263.5 262t-95 372t95 372t263.5 262t376.5 95zM864 1339q-174 0 -314 -80.5t-219 -222.5t-79 -319q0 -132 46.5 -248t127 -198t194.5 -129.5t244 -47.5q174 0 314 80.5
t219.5 223t79.5 319.5t-79.5 319t-219.5 222.5t-314 80.5z" />
    <glyph glyph-name="uni25CF" unicode="&#x25cf;" horiz-adv-x="1646" 
d="M858 1446q-205 0 -372 -95t-262 -262t-95 -372t95 -372t262 -262t372 -95t372 95t262 262t95 372t-95 372t-262 262t-372 95z" />
    <glyph glyph-name="uni25FD" unicode="&#x25fd;" horiz-adv-x="1454" 
d="M205 0v1044h1044v-1044h-1044zM1114 918h-776v-789h776v789z" />
    <glyph glyph-name="uni25FE" unicode="&#x25fe;" horiz-adv-x="1454" 
d="M205 0v1044h1044v-1044h-1044z" />
    <glyph glyph-name="uni262E" unicode="&#x262e;" horiz-adv-x="1654" 
d="M129 717q0 156 55 291.5t151.5 231.5t232.5 151t292 55q157 0 293 -55t232.5 -151t152 -231.5t55.5 -291.5t-55.5 -291.5t-152 -231.5t-232.5 -151t-293 -55q-156 0 -292 55t-232.5 151t-151.5 231.5t-55 291.5zM389 397l406 416v481q-227 -19 -374 -180.5t-147 -396.5
q0 -186 115 -320zM926 1294v-481l405 -416q117 133 117 320q0 235 -147 396.5t-375 180.5zM1274 289l-348 358v-508q207 15 348 150zM795 139v506l-346 -356q141 -135 346 -150z" />
    <glyph glyph-name="uni26AA" unicode="&#x26aa;" horiz-adv-x="1224" 
d="M610 1038q145 0 266 -69t191 -189.5t70 -265.5t-70 -265.5t-191 -189.5t-266 -69q-221 0 -373.5 151.5t-152.5 372.5t152.5 372.5t373.5 151.5zM610 918q-168 0 -285.5 -118t-117.5 -286q0 -167 118 -285t285 -118q168 0 286 117.5t118 285.5q0 169 -117.5 286.5
t-286.5 117.5z" />
    <glyph glyph-name="uni26AB" unicode="&#x26ab;" horiz-adv-x="1224" 
d="M610 1038q145 0 266 -69t191 -189.5t70 -265.5t-70 -265.5t-191 -189.5t-266 -69q-221 0 -373.5 151.5t-152.5 372.5t152.5 372.5t373.5 151.5z" />
    <glyph glyph-name="uni2713" unicode="&#x2713;" horiz-adv-x="1976" 
d="M776 0l-715 715l119 121l596 -594l1190 1192l123 -121z" />
    <glyph glyph-name="uni2715" unicode="&#x2715;" horiz-adv-x="1599" 
d="M84 1313l121 121l594 -594l596 594l121 -121l-596 -594l596 -600l-121 -119l-596 596l-594 -596l-121 119l596 600z" />
    <glyph glyph-name="uni2780" unicode="&#x2780;" 
d="M944 1446q141 0 263 -47t208 -129t135 -197t49 -246q0 -177 -62.5 -332t-172 -266.5t-265 -176t-333.5 -64.5q-188 0 -338 80.5t-233.5 221.5t-83.5 316q0 176 63 331.5t172.5 267t265 176.5t332.5 65zM936 1341q-201 0 -362 -96.5t-251 -264.5t-90 -374
q0 -221 151 -367.5t384 -146.5q198 0 361 96.5t255.5 264.5t92.5 372q0 145 -69.5 263t-193.5 185.5t-278 67.5zM999 1090l-131 -746h-114l86 496q-17 -17 -49 -17h-127l20 113h107q39 0 56 15t23 48l17 91h112z" />
    <glyph glyph-name="uni2781" unicode="&#x2781;" 
d="M944 1446q141 0 263 -47t208 -129t135 -197t49 -246q0 -177 -62.5 -332t-172 -266.5t-265 -176t-333.5 -64.5q-188 0 -338 80.5t-233.5 221.5t-83.5 316q0 176 63 331.5t172.5 267t265 176.5t332.5 65zM936 1341q-201 0 -362 -96.5t-251 -264.5t-90 -374
q0 -221 151 -367.5t384 -146.5q198 0 361 96.5t255.5 264.5t92.5 372q0 145 -69.5 263t-193.5 185.5t-278 67.5zM905 1102q114 0 178 -54.5t64 -150.5q0 -46 -14 -85t-42.5 -72.5t-57 -58t-72.5 -54.5l-250 -170h368l-20 -113h-545l16 107l344 237q82 57 117 100t35 99
q0 53 -34 81.5t-91 28.5q-71 0 -120.5 -46.5t-63.5 -121.5h-115q19 128 100.5 200.5t202.5 72.5z" />
    <glyph glyph-name="uni2782" unicode="&#x2782;" 
d="M944 1446q141 0 263 -47t208 -129t135 -197t49 -246q0 -177 -62.5 -332t-172 -266.5t-265 -176t-333.5 -64.5q-188 0 -338 80.5t-233.5 221.5t-83.5 316q0 176 63 331.5t172.5 267t265 176.5t332.5 65zM936 1341q-201 0 -362 -96.5t-251 -264.5t-90 -374
q0 -221 151 -367.5t384 -146.5q198 0 361 96.5t255.5 264.5t92.5 372q0 145 -69.5 263t-193.5 185.5t-278 67.5zM727 868h-115q20 112 100 173t193 61q111 0 178.5 -55t67.5 -138q0 -73 -42.5 -118.5t-109.5 -61.5q50 -11 80.5 -50t30.5 -97q0 -108 -80.5 -179t-228.5 -71
q-123 0 -191.5 64t-68.5 184h114q0 -70 42 -107t116 -37q79 0 127.5 39.5t48.5 104.5q0 104 -149 104h-52l17 86h57q77 0 122.5 34t45.5 97q0 43 -37 69.5t-92 26.5q-71 0 -117 -36.5t-57 -92.5z" />
    <glyph glyph-name="uni2783" unicode="&#x2783;" 
d="M944 1446q141 0 263 -47t208 -129t135 -197t49 -246q0 -177 -62.5 -332t-172 -266.5t-265 -176t-333.5 -64.5q-188 0 -338 80.5t-233.5 221.5t-83.5 316q0 176 63 331.5t172.5 267t265 176.5t332.5 65zM936 1341q-201 0 -362 -96.5t-251 -264.5t-90 -374
q0 -221 151 -367.5t384 -146.5q198 0 361 96.5t255.5 264.5t92.5 372q0 145 -69.5 263t-193.5 185.5t-278 67.5zM498 637l430 453h145l-80 -457h121l-18 -105h-121l-33 -184h-115l33 184h-379zM879 633l57 325l-303 -325h246z" />
    <glyph glyph-name="uni2784" unicode="&#x2784;" 
d="M944 1446q141 0 263 -47t208 -129t135 -197t49 -246q0 -177 -62.5 -332t-172 -266.5t-265 -176t-333.5 -64.5q-188 0 -338 80.5t-233.5 221.5t-83.5 316q0 176 63 331.5t172.5 267t265 176.5t332.5 65zM936 1341q-201 0 -362 -96.5t-251 -264.5t-90 -374
q0 -221 151 -367.5t384 -146.5q198 0 361 96.5t255.5 264.5t92.5 372q0 145 -69.5 263t-193.5 185.5t-278 67.5zM690 1090h465l-20 -105h-375l-47 -207q66 66 174 66q101 0 164 -61.5t63 -155.5q0 -134 -85 -214.5t-216 -80.5q-127 0 -190 66t-58 159h113q0 -55 41 -88
t100 -33q76 0 125 49.5t49 120.5q0 63 -38 98t-97 35q-52 0 -92.5 -23.5t-60.5 -60.5h-111z" />
    <glyph glyph-name="uni2785" unicode="&#x2785;" 
d="M944 1446q141 0 263 -47t208 -129t135 -197t49 -246q0 -177 -62.5 -332t-172 -266.5t-265 -176t-333.5 -64.5q-188 0 -338 80.5t-233.5 221.5t-83.5 316q0 176 63 331.5t172.5 267t265 176.5t332.5 65zM936 1341q-201 0 -362 -96.5t-251 -264.5t-90 -374
q0 -221 151 -367.5t384 -146.5q198 0 361 96.5t255.5 264.5t92.5 372q0 145 -69.5 263t-193.5 185.5t-278 67.5zM920 1102q103 0 167.5 -59.5t61.5 -159.5h-111q-5 114 -123 114q-91 0 -156.5 -68t-90.5 -190q-4 -20 -4 -26q58 112 215 112q102 0 166.5 -55.5t64.5 -146.5
q0 -130 -86.5 -210.5t-222.5 -80.5q-127 0 -191.5 73.5t-64.5 200.5q0 126 44 238t131.5 185t199.5 73zM856 727q-82 0 -134 -47.5t-52 -122.5q0 -60 37.5 -91.5t97.5 -31.5q82 0 133 46.5t51 123.5q0 60 -37 91.5t-96 31.5z" />
    <glyph glyph-name="uni2786" unicode="&#x2786;" 
d="M944 1446q141 0 263 -47t208 -129t135 -197t49 -246q0 -177 -62.5 -332t-172 -266.5t-265 -176t-333.5 -64.5q-188 0 -338 80.5t-233.5 221.5t-83.5 316q0 176 63 331.5t172.5 267t265 176.5t332.5 65zM936 1341q-201 0 -362 -96.5t-251 -264.5t-90 -374
q0 -221 151 -367.5t384 -146.5q198 0 361 96.5t255.5 264.5t92.5 372q0 145 -69.5 263t-193.5 185.5t-278 67.5zM633 985l18 105h535l-15 -101l-428 -645h-131l428 641h-407z" />
    <glyph glyph-name="uni2787" unicode="&#x2787;" 
d="M944 1446q141 0 263 -47t208 -129t135 -197t49 -246q0 -177 -62.5 -332t-172 -266.5t-265 -176t-333.5 -64.5q-188 0 -338 80.5t-233.5 221.5t-83.5 316q0 176 63 331.5t172.5 267t265 176.5t332.5 65zM936 1341q-201 0 -362 -96.5t-251 -264.5t-90 -374
q0 -221 151 -367.5t384 -146.5q198 0 361 96.5t255.5 264.5t92.5 372q0 145 -69.5 263t-193.5 185.5t-278 67.5zM915 1102q108 0 176 -52.5t68 -134.5q0 -74 -37.5 -118.5t-109.5 -69.5q48 -14 79 -56.5t31 -101.5q0 -103 -87 -170t-226 -67q-124 0 -198 54t-74 142
q0 73 49.5 128t132.5 79q-43 15 -72 51t-29 88q0 98 86 163t211 65zM907 1001q-74 0 -122 -37t-48 -90q0 -50 38 -75t95 -25q75 0 122.5 37.5t47.5 89.5q0 47 -38 73.5t-95 26.5zM842 676q-84 0 -134.5 -37.5t-50.5 -93.5q0 -54 46 -82.5t114 -28.5q84 0 134 37.5t50 93.5
q0 54 -45.5 82.5t-113.5 28.5z" />
    <glyph glyph-name="uni2788" unicode="&#x2788;" 
d="M944 1446q141 0 263 -47t208 -129t135 -197t49 -246q0 -177 -62.5 -332t-172 -266.5t-265 -176t-333.5 -64.5q-188 0 -338 80.5t-233.5 221.5t-83.5 316q0 176 63 331.5t172.5 267t265 176.5t332.5 65zM936 1341q-201 0 -362 -96.5t-251 -264.5t-90 -374
q0 -221 151 -367.5t384 -146.5q198 0 361 96.5t255.5 264.5t92.5 372q0 145 -69.5 263t-193.5 185.5t-278 67.5zM797 332q-103 0 -168 59.5t-62 159.5h111q5 -115 123 -115q91 0 159 70t91 188q2 10 2 25q-57 -111 -215 -111q-102 0 -167 56t-65 147q0 130 86.5 210.5
t222.5 80.5q127 0 191.5 -74t64.5 -201q0 -126 -44 -238t-131 -184.5t-199 -72.5zM860 707q82 0 134.5 47.5t52.5 122.5q0 60 -38 91t-98 31q-82 0 -133 -46.5t-51 -123.5q0 -60 37 -91t96 -31z" />
    <glyph glyph-name="uni278A" unicode="&#x278a;" 
d="M944 1446q-177 0 -332.5 -65t-265 -176.5t-172.5 -267t-63 -331.5q0 -175 83.5 -316t233.5 -221.5t338 -80.5q178 0 333.5 64.5t265 176t172 266.5t62.5 332q0 131 -49 246t-135 197t-208 129t-263 47zM999 1090l-131 -746h-114l86 496q-17 -17 -49 -17h-127l20 113h107
q39 0 56 15t23 48l17 91h112z" />
    <glyph glyph-name="uni278B" unicode="&#x278b;" 
d="M944 1446q-177 0 -332.5 -65t-265 -176.5t-172.5 -267t-63 -331.5q0 -175 83.5 -316t233.5 -221.5t338 -80.5q178 0 333.5 64.5t265 176t172 266.5t62.5 332q0 131 -49 246t-135 197t-208 129t-263 47zM905 1102q114 0 178 -54.5t64 -150.5q0 -46 -14 -85t-42.5 -72.5
t-57 -58t-72.5 -54.5l-250 -170h368l-20 -113h-545l16 107l344 237q82 57 117 100t35 99q0 53 -34 81.5t-91 28.5q-71 0 -120.5 -46.5t-63.5 -121.5h-115q19 128 100.5 200.5t202.5 72.5z" />
    </font>
</defs>
</svg>
