<?xml version="1.0" standalone="no"?>
<!DOCTYPE svg PUBLIC "-//W3C//DTD SVG 1.1//EN" "http://www.w3.org/Graphics/SVG/1.1/DTD/svg11.dtd" >
<svg xmlns="http://www.w3.org/2000/svg" xmlns:xlink="http://www.w3.org/1999/xlink" version="1.1">
<metadata>
Created by FontForge 20170731 at Tue Mar  7 17:18:17 2023
 By Aleksey,,,
Copyright (c) 2020 CoType Foundry. All Rights Reserved.
</metadata>
<defs>
<font id="AeonikPro-Bold" horiz-adv-x="1228" >
  <font-face 
    font-family="Aeonik Pro"
    font-weight="700"
    font-stretch="normal"
    units-per-em="2048"
    panose-1="2 11 8 3 3 3 0 0 0 0"
    ascent="1638"
    descent="-410"
    x-height="1053"
    cap-height="1434"
    bbox="-834 -422 4450 1872"
    underline-thickness="176"
    underline-position="-585"
    unicode-range="U+000D-1F10C"
  />
<missing-glyph horiz-adv-x="1269" 
d="M123 -223v1698h1024v-1698h-1024zM444 1294q-84 0 -129 -49t-45 -135t45 -135t129 -49q66 0 106.5 38t45.5 99h-94q-13 -59 -62 -59q-71 0 -71 106q0 107 71 107q48 0 62 -62h94q-5 63 -45.5 101t-106.5 38zM807 1294q-81 0 -129.5 -52t-48.5 -132q0 -81 48 -132.5
t130 -51.5q81 0 129.5 51.5t48.5 132.5q0 80 -49 132t-129 52zM807 1004q-39 0 -59.5 29.5t-20.5 76.5q0 48 21 77.5t59 29.5t59 -29.5t21 -77.5q0 -47 -20.5 -76.5t-59.5 -29.5zM590 819h-299v-82h100v-282h96v282h103v82zM854 455v135l131 229h-106l-72 -133l-68 133h-112
l131 -229v-135h96zM416 94h57q62 0 99.5 34t37.5 91q0 58 -37.5 92.5t-99.5 34.5h-151v-364h94v112zM692 -18h256v81h-160v64h123v76h-123v61h154v82h-250v-364zM416 268h49q22 0 35.5 -13t13.5 -36q0 -22 -13.5 -34.5t-35.5 -12.5h-49v96z" />
    <glyph glyph-name="fi" unicode="fi" horiz-adv-x="1210" 
d="M967 1165q-71 0 -119.5 46.5t-48.5 115.5q0 70 48.5 117t119.5 47t118.5 -47t47.5 -117q0 -69 -47.5 -115.5t-118.5 -46.5zM465 1053h645v-1053h-289v809h-356v-809h-289v809h-174v244h174v92q0 139 80.5 214t237.5 75h202v-246h-145q-86 0 -86 -86v-49z" />
    <glyph glyph-name="f_f.liga" unicode="ff" horiz-adv-x="1382" 
d="M1374 1188h-178q-86 0 -86 -86v-49h264v-244h-264v-809h-289v809h-356v-809h-289v809h-174v244h174v92q0 139 80.5 214t237.5 75h202v-246h-145q-86 0 -86 -86v-49h356v92q0 139 80.5 214t237.5 75h235v-246z" />
    <glyph glyph-name="f_f_i.liga" unicode="ffi" horiz-adv-x="1863" 
d="M1620 1165q-71 0 -119.5 46.5t-48.5 115.5q0 70 48.5 117t119.5 47t119.5 -47t48.5 -117q0 -69 -48.5 -115.5t-119.5 -46.5zM1118 1053h647v-1053h-290v809h-357v-809h-289v809h-364v-809h-289v809h-174v244h174v92q0 139 80.5 214t237.5 75h202v-246h-145q-86 0 -86 -86
v-49h364v92q0 139 80.5 214t237.5 75h203v-246h-146q-86 0 -86 -86v-49z" />
    <glyph glyph-name="f_f_t.liga" unicode="fft" horiz-adv-x="2041" 
d="M1858 244h149v-244h-240q-301 0 -301 301v508h-348v-809h-289v809h-364v-809h-289v809h-174v244h174v92q0 139 80.5 214t237.5 75h202v-246h-145q-86 0 -86 -86v-49h364v92q0 139 80.5 214t237.5 75h184v-246h-127q-86 0 -86 -86v-49h348v295h289v-295h242v-244h-242
v-461q0 -55 24.5 -79.5t78.5 -24.5z" />
    <glyph glyph-name="f_t.liga" unicode="ft" horiz-adv-x="1386" 
d="M1204 244h150v-244h-240q-301 0 -301 301v508h-348v-809h-289v809h-174v244h174v92q0 139 80.5 214t237.5 75h184v-246h-127q-86 0 -86 -86v-49h348v295h289v-295h239v-244h-239v-461q0 -55 24 -79.5t78 -24.5z" />
    <glyph glyph-name="t_t.liga" unicode="tt" horiz-adv-x="1409" 
d="M1227 244h147v-244h-237q-303 0 -303 301v508h-369v-461q0 -56 23.5 -80t78.5 -24h123v-244h-213q-301 0 -301 301v508h-174v244h174v295h289v-295h369v295h290v-295h240v-244h-240v-461q0 -56 24 -80t79 -24z" />
    <glyph glyph-name=".notdef" horiz-adv-x="1269" 
d="M123 -223v1698h1024v-1698h-1024zM444 1294q-84 0 -129 -49t-45 -135t45 -135t129 -49q66 0 106.5 38t45.5 99h-94q-13 -59 -62 -59q-71 0 -71 106q0 107 71 107q48 0 62 -62h94q-5 63 -45.5 101t-106.5 38zM807 1294q-81 0 -129.5 -52t-48.5 -132q0 -81 48 -132.5
t130 -51.5q81 0 129.5 51.5t48.5 132.5q0 80 -49 132t-129 52zM807 1004q-39 0 -59.5 29.5t-20.5 76.5q0 48 21 77.5t59 29.5t59 -29.5t21 -77.5q0 -47 -20.5 -76.5t-59.5 -29.5zM590 819h-299v-82h100v-282h96v282h103v82zM854 455v135l131 229h-106l-72 -133l-68 133h-112
l131 -229v-135h96zM416 94h57q62 0 99.5 34t37.5 91q0 58 -37.5 92.5t-99.5 34.5h-151v-364h94v112zM692 -18h256v81h-160v64h123v76h-123v61h154v82h-250v-364zM416 268h49q22 0 35.5 -13t13.5 -36q0 -22 -13.5 -34.5t-35.5 -12.5h-49v96z" />
    <glyph glyph-name=".null" 
 />
    <glyph glyph-name="nonmarkingreturn" horiz-adv-x="682" 
 />
    <glyph glyph-name="CR" unicode="&#xd;" 
 />
    <glyph glyph-name="space" unicode=" " horiz-adv-x="507" 
 />
    <glyph glyph-name="exclam" unicode="!" horiz-adv-x="591" 
d="M408 444h-220l-47 990h310zM123 158q0 75 49 123.5t123 48.5q75 0 124.5 -48.5t49.5 -123.5q0 -73 -49.5 -121.5t-124.5 -48.5q-74 0 -123 48.5t-49 121.5z" />
    <glyph glyph-name="quotedbl" unicode="&#x22;" horiz-adv-x="841" 
d="M315 879h-184l-61 387q-11 77 29.5 127.5t123.5 50.5q84 0 124 -51t28 -127zM711 879h-185l-59 387q-12 76 27.5 127t123.5 51q85 0 125 -50.5t29 -127.5z" />
    <glyph glyph-name="numbersign" unicode="#" horiz-adv-x="1150" 
d="M285 952l43 289h237l-45 -289h205l43 289h236l-43 -289h141v-239h-176l-27 -185h160v-239h-195l-43 -289h-237l45 289h-205l-43 -289h-236l43 289h-141v239h176l27 185h-160v239h195zM690 713h-205l-26 -185h205z" />
    <glyph glyph-name="dollar" unicode="$" horiz-adv-x="1280" 
d="M758 848q83 -15 143.5 -32t124.5 -48t103.5 -72.5t65 -106.5t24.5 -149q-1 -178 -121.5 -297t-325.5 -147v-215h-254v217q-211 34 -331 159t-121 314l301 -4q8 -106 87.5 -171t209.5 -65q109 0 177 46t68 129q0 23 -4.5 41t-18 33.5t-26 27t-40 22.5t-48.5 18.5t-63 17
t-71 15.5t-85 17q-81 15 -141 32.5t-122.5 49t-102 74t-64.5 108t-25 150.5q0 168 113.5 283t306.5 143v217h254v-219q193 -32 304 -148.5t114 -292.5h-301q-11 93 -78.5 149t-177.5 56q-102 0 -163.5 -42.5t-61.5 -123.5q0 -25 8 -45t19 -35t36.5 -28.5t48 -22.5t66 -19.5
t77 -17t95.5 -18.5z" />
    <glyph glyph-name="percent" unicode="%" horiz-adv-x="1886" 
d="M78 1092q0 154 107 254t270 100q162 0 268 -100.5t106 -253.5q0 -154 -106.5 -254.5t-267.5 -100.5q-163 0 -270 100.5t-107 254.5zM594 0h-285l983 1434h285zM596 1092q0 62 -40.5 103.5t-100.5 41.5q-61 0 -102.5 -41.5t-41.5 -103.5q0 -63 41 -104.5t103 -41.5
q60 0 100.5 41.5t40.5 104.5zM1057 342q0 153 106.5 253.5t268.5 100.5q163 0 268.5 -100t105.5 -254t-105.5 -254t-268.5 -100q-162 0 -268.5 100.5t-106.5 253.5zM1575 342q0 62 -41 103.5t-102 41.5q-60 0 -101 -42t-41 -103q0 -63 41 -104t101 -41q62 0 102.5 41
t40.5 104z" />
    <glyph glyph-name="ampersand" unicode="&#x26;" horiz-adv-x="1646" 
d="M1214 328l46 -47q24 -26 46 -33.5t58 -7.5h145v-240h-190q-182 0 -281 104l-24 25q-172 -141 -383 -141q-147 0 -261 41.5t-183 131t-68 216.5q1 73 26.5 139t94.5 135.5t178 118.5q-68 85 -90.5 149.5t-22.5 157.5q0 159 126.5 264t322.5 105q169 0 285 -96t116 -242
q0 -115 -71.5 -205.5t-254.5 -167.5l5 -4l229 -242l184 285h266zM743 1243q-68 0 -111.5 -45t-43.5 -113q0 -59 22 -101t78 -103q195 84 195 221q0 63 -39 102t-101 39zM649 211q112 0 219 74l-321 342q-129 -78 -129 -219q0 -94 62 -145.5t169 -51.5z" />
    <glyph glyph-name="quotesingle" unicode="'" horiz-adv-x="444" 
d="M315 879h-184l-61 387q-11 77 29.5 127.5t123.5 50.5q84 0 124 -51t28 -127z" />
    <glyph glyph-name="parenleft" unicode="(" horiz-adv-x="704" 
d="M692 -266h-307q-154 210 -226.5 422.5t-72.5 457.5q0 241 72.5 456.5t226.5 424.5h307q-175 -238 -248 -438t-73 -443q0 -248 72.5 -448t248.5 -432z" />
    <glyph glyph-name="parenright" unicode=")" horiz-adv-x="704" 
d="M12 1495h307q154 -210 226.5 -423t72.5 -458q0 -241 -72.5 -456t-226.5 -424h-307q175 239 248.5 438.5t73.5 441.5q0 247 -73 448t-249 433z" />
    <glyph glyph-name="asterisk" unicode="*" horiz-adv-x="888" 
d="M739 1305l82 -183l-235 -84l162 -178l-152 -129l-154 215l-151 -213l-152 129l164 178l-235 86l79 181l207 -107l-8 234h195l-9 -236z" />
    <glyph glyph-name="plus" unicode="+" horiz-adv-x="1054" 
d="M395 705v327h262v-327h312v-244h-312v-330h-262v330h-309v244h309z" />
    <glyph glyph-name="comma" unicode="," horiz-adv-x="507" 
d="M233 324q96 0 156 -75t60 -194q0 -169 -102.5 -259.5t-280.5 -92.5v150q94 1 144 40.5t50 98.5q0 20 -2 28q-32 -16 -65 -16q-60 0 -100 40.5t-40 115.5q0 68 52.5 116t127.5 48z" />
    <glyph glyph-name="hyphen" unicode="-" horiz-adv-x="880" 
d="M799 465h-717v235h717v-235z" />
    <glyph glyph-name="period" unicode="." horiz-adv-x="507" 
d="M80 158q0 75 49.5 123.5t124.5 48.5q74 0 124 -49t50 -123q0 -73 -50 -121.5t-124 -48.5q-75 0 -124.5 48.5t-49.5 121.5z" />
    <glyph glyph-name="slash" unicode="/" horiz-adv-x="784" 
d="M272 -266h-272l580 1761h274z" />
    <glyph glyph-name="zero" unicode="0" horiz-adv-x="1323" 
d="M72 684v66q0 317 163.5 506.5t426.5 189.5q264 0 427.5 -189t163.5 -507v-66q0 -322 -163 -509t-428 -187q-264 0 -427 187t-163 509zM958 694v45q0 217 -80.5 337t-215.5 120q-134 0 -214.5 -120t-80.5 -337v-45q0 -218 80.5 -337t214.5 -119q135 0 215.5 119t80.5 337z
" />
    <glyph glyph-name="one" unicode="1" horiz-adv-x="751" 
d="M340 1303v131h289v-1434h-295v928q-31 -8 -78 -8h-240v243h213q111 0 111 140z" />
    <glyph glyph-name="two" unicode="2" horiz-adv-x="1150" 
d="M43 0v227l545 451q104 84 153.5 153.5t49.5 151.5q0 103 -61.5 159t-162.5 56q-104 0 -167.5 -67t-63.5 -183v-22h-297v41q0 207 144.5 343t385.5 136q247 0 382.5 -122.5t135.5 -328.5q0 -77 -19.5 -143t-61 -125t-90.5 -108.5t-123 -108.5l-322 -262h625v-248h-1053z
" />
    <glyph glyph-name="three" unicode="3" horiz-adv-x="1204" 
d="M858 745q126 -25 202.5 -108t76.5 -231q0 -188 -149.5 -303t-401.5 -115q-257 0 -405 125.5t-148 353.5h293q3 -118 78 -183t196 -65q103 0 170.5 55.5t67.5 149.5q0 86 -64 135t-186 49h-142v236h125q115 0 176.5 52.5t61.5 139.5q0 85 -62.5 131.5t-158.5 46.5
q-105 0 -172 -60t-70 -159h-289q3 201 151.5 326t383.5 125q241 0 378.5 -104.5t137.5 -282.5q0 -125 -69 -205t-181 -109z" />
    <glyph glyph-name="four" unicode="4" horiz-adv-x="1243" 
d="M29 307v244l633 883h358v-881h199v-246h-199v-307h-289v307h-702zM731 1141l-420 -588h420v588z" />
    <glyph glyph-name="five" unicode="5" horiz-adv-x="1208" 
d="M676 977q217 0 350 -136t133 -356q0 -120 -43 -216t-117.5 -156.5t-172 -92.5t-210.5 -32q-242 0 -390.5 135t-157.5 338h292q11 -101 79 -166.5t179 -65.5q101 0 172.5 67.5t71.5 188.5q0 115 -67 186.5t-179 71.5q-45 0 -87 -11.5t-86 -46.5t-68 -91h-285l41 840h942
v-248h-674l-16 -314q115 105 293 105z" />
    <glyph glyph-name="six" unicode="6" horiz-adv-x="1253" 
d="M203 213q-131 189 -131 489q0 355 158 549.5t432 194.5q205 0 346.5 -111.5t165.5 -304.5h-291q-20 86 -84 132t-160 46q-138 0 -213.5 -106.5t-75.5 -304.5v-35q15 25 19 31q50 78 139.5 123t198.5 45q217 0 351 -134.5t134 -351.5q0 -219 -147.5 -353t-387.5 -134
q-297 0 -454 225zM897 475q0 115 -65 185.5t-173 70.5q-109 0 -177 -70.5t-68 -185.5q0 -116 66 -186t175 -70t175.5 71t66.5 185z" />
    <glyph glyph-name="seven" unicode="7" horiz-adv-x="1089" 
d="M18 1184v250h1051v-191l-631 -1243h-319l626 1184h-727z" />
    <glyph glyph-name="eight" unicode="8" 
d="M889 750q121 -27 201.5 -117t80.5 -234q0 -188 -147 -299.5t-410 -111.5t-410 111.5t-147 299.5q0 143 81 231.5t202 117.5q-105 31 -175.5 112t-70.5 207q0 169 140.5 274t379.5 105t380 -105.5t141 -273.5q0 -119 -71 -203t-175 -114zM614 1235q-101 0 -162 -50
t-61 -132q0 -84 61 -135.5t162 -51.5q102 0 164 51.5t62 135.5q0 82 -62 132t-164 50zM614 197q115 0 186.5 60t71.5 153q0 95 -71.5 156t-186.5 61q-113 0 -184.5 -61.5t-71.5 -155.5q0 -93 71.5 -153t184.5 -60z" />
    <glyph glyph-name="nine" unicode="9" horiz-adv-x="1253" 
d="M592 -12q-222 0 -357.5 108.5t-160.5 306.5h291q19 -85 82 -131.5t161 -46.5q141 0 217 108.5t76 303.5q0 23 -2 37l-31 -45q-53 -72 -135.5 -111t-183.5 -39q-220 0 -354 130.5t-134 348.5q0 215 148.5 351.5t386.5 136.5q285 0 442 -209q146 -195 146 -504
q0 -357 -153.5 -551t-438.5 -194zM594 707q109 0 178.5 70.5t69.5 185.5q0 113 -67.5 182t-176.5 69t-175.5 -69t-66.5 -182q0 -115 65 -185.5t173 -70.5z" />
    <glyph glyph-name="colon" unicode=":" horiz-adv-x="507" 
d="M80 870q0 73 49.5 121.5t124.5 48.5q74 0 124 -48.5t50 -121.5q0 -74 -50 -122t-124 -48q-75 0 -124.5 47.5t-49.5 122.5zM80 158q0 75 49.5 123.5t124.5 48.5q74 0 124 -49t50 -123q0 -73 -50 -121.5t-124 -48.5q-75 0 -124.5 48.5t-49.5 121.5z" />
    <glyph glyph-name="semicolon" unicode=";" horiz-adv-x="507" 
d="M70 868q0 75 49.5 123.5t124.5 48.5q74 0 124 -49t50 -123q0 -73 -50 -121.5t-124 -48.5q-75 0 -124.5 48.5t-49.5 121.5zM233 324q96 0 156 -75t60 -194q0 -169 -102.5 -259.5t-280.5 -92.5v150q94 1 144 40.5t50 98.5q0 20 -2 28q-32 -16 -65 -16q-60 0 -100 40.5
t-40 115.5q0 68 52.5 116t127.5 48z" />
    <glyph glyph-name="less" unicode="&#x3c;" horiz-adv-x="1054" 
d="M932 111l-809 335v271l809 336v-279l-488 -192l488 -193v-278z" />
    <glyph glyph-name="equal" unicode="=" horiz-adv-x="1054" 
d="M948 670h-842v243h842v-243zM948 229h-842v242h842v-242z" />
    <glyph glyph-name="greater" unicode="&#x3e;" horiz-adv-x="1054" 
d="M123 1053l809 -336v-271l-809 -335v278l487 193l-487 192v279z" />
    <glyph glyph-name="question" unicode="?" horiz-adv-x="1093" 
d="M338 948h-293q0 102 34.5 192t97.5 158t160.5 108t215.5 40q224 0 355.5 -107.5t131.5 -279.5q0 -57 -12 -105.5t-30 -83t-48 -67.5t-56.5 -54.5t-66.5 -48.5q-93 -62 -130.5 -106.5t-37.5 -106.5v-26h-270v57q0 62 14.5 109t47 84t66 62t89.5 58q71 45 104 92.5
t33 108.5q0 74 -51 120t-137 46q-98 0 -157.5 -68.5t-59.5 -181.5zM362 154q0 71 48.5 117t121.5 46t121.5 -46t48.5 -117q0 -72 -49 -119t-121 -47t-121 47t-49 119z" />
    <glyph glyph-name="at" unicode="@" horiz-adv-x="2009" 
d="M90 496q0 154 48 294t136 248.5t206 189t262.5 123t301.5 42.5q256 0 455.5 -95t309.5 -265t110 -388q0 -246 -140.5 -397.5t-355.5 -151.5q-92 0 -151.5 45.5t-73.5 116.5l-6 27q-40 -85 -123 -136t-184 -51q-141 0 -242.5 106.5t-101.5 287.5q0 199 117.5 335
t293.5 136q100 0 164.5 -39t77.5 -93l37 117h231l-65 -571q-6 -60 14.5 -86.5t67.5 -26.5q89 0 158 113t69 278q0 259 -180 412.5t-488 153.5q-155 0 -291.5 -55.5t-234 -151.5t-153.5 -229.5t-56 -284.5q0 -310 189 -476.5t538 -166.5q246 0 449 104l-9 -186
q-77 -45 -199 -72t-267 -27q-263 0 -469.5 98.5t-325.5 286t-119 435.5zM1176 573q0 89 -45 136t-117 47q-87 0 -146 -72t-59 -174q0 -97 46 -150t116 -53q85 0 145 73t60 193z" />
    <glyph glyph-name="A" unicode="A" horiz-adv-x="1429" 
d="M326 0h-318l524 1434h369l520 -1434h-329l-111 313h-545zM707 1106l-189 -545h379z" />
    <glyph glyph-name="B" unicode="B" horiz-adv-x="1304" 
d="M123 0v1434h545q249 0 386.5 -99.5t137.5 -279.5q0 -131 -71.5 -211t-198.5 -107q150 -20 235.5 -101t85.5 -228q0 -190 -144 -299t-405 -109h-571zM676 1192h-246v-348h246q98 0 153.5 47t55.5 127t-55 127t-154 47zM696 606h-266v-362h266q110 0 171 47t61 131
q0 87 -61.5 135.5t-170.5 48.5z" />
    <glyph glyph-name="C" unicode="C" horiz-adv-x="1433" 
d="M750 -12q-317 0 -500.5 198t-183.5 531q0 332 189 530.5t513 198.5q253 0 420.5 -144.5t195.5 -379.5h-311q-28 122 -112 193t-209 71q-172 0 -272.5 -129.5t-100.5 -339.5q0 -209 99 -339t270 -130q128 0 212.5 70.5t112.5 193.5h309q-26 -235 -198.5 -379.5
t-433.5 -144.5z" />
    <glyph glyph-name="D" unicode="D" horiz-adv-x="1452" 
d="M645 0h-522v1434h522q220 0 389.5 -90.5t262 -253t92.5 -371.5q0 -208 -92.5 -371.5t-262 -255.5t-389.5 -92zM430 1178v-922h215q202 0 315 127.5t113 335.5q0 209 -113 334t-315 125h-215z" />
    <glyph glyph-name="E" unicode="E" horiz-adv-x="1169" 
d="M123 0v1434h962v-265h-655v-321h533v-252h-533v-332h678v-264h-985z" />
    <glyph glyph-name="F" unicode="F" horiz-adv-x="1114" 
d="M123 0v1434h946v-265h-639v-335h524v-252h-524v-582h-307z" />
    <glyph glyph-name="G" unicode="G" horiz-adv-x="1533" 
d="M748 -12q-308 0 -495 199.5t-187 529.5q0 332 191 530.5t519 198.5q257 0 428 -144t199 -378h-307q-28 121 -113.5 191.5t-214.5 70.5q-178 0 -283.5 -130t-105.5 -339q0 -211 104 -340t285 -129q63 0 121 17t108 50.5t84.5 90t44.5 129.5v18h-356v244h641v-797h-215
l-31 172q-62 -82 -168 -133t-249 -51z" />
    <glyph glyph-name="H" unicode="H" horiz-adv-x="1427" 
d="M123 0v1434h307v-576h569v576h308v-1434h-308v592h-569v-592h-307z" />
    <glyph glyph-name="I" unicode="I" horiz-adv-x="550" 
d="M123 0v1434h307v-1434h-307z" />
    <glyph glyph-name="J" unicode="J" horiz-adv-x="813" 
d="M383 440v994h307v-1053q0 -181 -100 -281t-281 -100h-264v264h170q89 0 128.5 42.5t39.5 133.5z" />
    <glyph glyph-name="K" unicode="K" horiz-adv-x="1398" 
d="M123 0v1434h307v-650l574 650h372l-530 -598l565 -836h-369l-413 610l-199 -225v-385h-307z" />
    <glyph glyph-name="L" unicode="L" horiz-adv-x="1040" 
d="M999 0h-876v1434h307v-1170h569v-264z" />
    <glyph glyph-name="M" unicode="M" horiz-adv-x="1826" 
d="M123 0v1434h403l398 -1053l385 1053h395v-1434h-293v961l-373 -961h-250l-372 961v-961h-293z" />
    <glyph glyph-name="N" unicode="N" horiz-adv-x="1433" 
d="M424 0h-301v1434h278l609 -904v904h303v-1434h-281l-608 903v-903z" />
    <glyph glyph-name="O" unicode="O" horiz-adv-x="1550" 
d="M1487 717q0 -207 -89 -373t-252 -261t-370 -95t-370 95t-251.5 261t-88.5 373t88.5 373t251.5 261t370 95t370 -95t252 -261t89 -373zM379 717q0 -205 109 -337t288 -132q178 0 286.5 132t108.5 337t-108.5 337t-286.5 132q-179 0 -288 -132t-109 -337z" />
    <glyph glyph-name="P" unicode="P" horiz-adv-x="1273" 
d="M123 0v1434h584q234 0 376 -130t142 -348q0 -216 -142 -345.5t-376 -129.5h-277v-481h-307zM678 1178h-248v-441h248q108 0 171.5 59t63.5 160q0 102 -63.5 162t-171.5 60z" />
    <glyph glyph-name="Q" unicode="Q" horiz-adv-x="1564" 
d="M1399 264h141v-264h-147q-87 0 -135.5 23t-88.5 73q-168 -108 -393 -108q-207 0 -370 95t-251.5 261t-88.5 373t88.5 373t251.5 261t370 95t370 -95t252 -261t89 -373q0 -258 -133 -445q24 -8 45 -8zM379 717q0 -205 109 -337t288 -132q124 0 219 67l-20 25
q-25 33 -48 48t-55 15h-133v261h156q82 0 124.5 -25t86.5 -80l33 -41q32 82 32 199q0 205 -108.5 337t-286.5 132q-179 0 -288 -132t-109 -337z" />
    <glyph glyph-name="R" unicode="R" horiz-adv-x="1306" 
d="M123 0v1434h584q237 0 381.5 -130.5t144.5 -347.5q0 -136 -66 -242t-180 -161l283 -553h-340l-242 481h-258v-481h-307zM682 1178h-252v-441h252q109 0 173.5 59.5t64.5 159.5q0 101 -64.5 161.5t-173.5 60.5z" />
    <glyph glyph-name="S" unicode="S" horiz-adv-x="1280" 
d="M66 471l301 -4q8 -106 87.5 -171t209.5 -65q109 0 177 46t68 129q0 23 -4.5 41t-18 33.5t-26 27t-40 22.5t-48.5 18.5t-63 17t-71 15.5t-85 17q-81 15 -141 32.5t-122.5 49t-102 74t-64.5 108t-25 150.5q0 192 147 313t388 121q253 0 403.5 -122.5t153.5 -328.5h-301
q-11 93 -78.5 149t-177.5 56q-102 0 -163.5 -42.5t-61.5 -123.5q0 -25 8 -45t19 -35t36.5 -28.5t48 -22.5t66 -19.5t77 -17t95.5 -18.5q83 -15 143.5 -32t124.5 -48t103.5 -72.5t65 -106.5t24.5 -149q-2 -202 -155.5 -327t-404.5 -125q-272 0 -431.5 131.5t-161.5 351.5z
" />
    <glyph glyph-name="T" unicode="T" horiz-adv-x="1218" 
d="M41 1169v265h1137v-265h-416v-1169h-307v1169h-414z" />
    <glyph glyph-name="U" unicode="U" horiz-adv-x="1402" 
d="M113 618v816h307v-832q0 -174 67.5 -262t212.5 -88q146 0 214.5 88t68.5 262v832h307v-816q0 -307 -150.5 -468.5t-439.5 -161.5q-288 0 -437.5 161.5t-149.5 468.5z" />
    <glyph glyph-name="V" unicode="V" horiz-adv-x="1339" 
d="M487 0l-487 1434h326l344 -1061l352 1061h317l-485 -1434h-367z" />
    <glyph glyph-name="W" unicode="W" horiz-adv-x="2011" 
d="M408 0l-400 1434l320 2l264 -1049l280 1047h277l272 -1047l271 1047h311l-399 -1434h-353l-250 952l-241 -952h-352z" />
    <glyph glyph-name="X" unicode="X" horiz-adv-x="1361" 
d="M20 0l467 733l-444 701h365l278 -455l289 455h344l-445 -697l467 -737h-366l-301 492l-312 -492h-342z" />
    <glyph glyph-name="Y" unicode="Y" horiz-adv-x="1359" 
d="M526 532l-526 902h358l322 -588l338 588h342l-526 -902v-532h-308v532z" />
    <glyph glyph-name="Z" unicode="Z" horiz-adv-x="1280" 
d="M70 1171v263h1140v-203l-735 -969h754v-262h-1178v203l735 968h-716z" />
    <glyph glyph-name="bracketleft" unicode="[" horiz-adv-x="675" 
d="M104 -266v1761h547v-252h-274v-1257h274v-252h-547z" />
    <glyph glyph-name="backslash" unicode="\" horiz-adv-x="905" 
d="M328 1495l579 -1761h-274l-580 1761h275z" />
    <glyph glyph-name="bracketright" unicode="]" horiz-adv-x="675" 
d="M571 1495v-1761h-546v252h274v1257h-274v252h546z" />
    <glyph glyph-name="asciicircum" unicode="^" horiz-adv-x="1077" 
d="M315 795h-249l360 639h225l363 -639h-264l-218 385z" />
    <glyph glyph-name="underscore" unicode="_" horiz-adv-x="1032" 
d="M930 -279h-828v267h828v-267z" />
    <glyph glyph-name="grave" unicode="`" horiz-adv-x="819" 
d="M295 1139l-256 295h330l143 -295h-217z" />
    <glyph glyph-name="a" unicode="a" horiz-adv-x="1148" 
d="M1104 244h33v-244h-148q-106 0 -151 45.5t-43 126.5q-116 -184 -344 -184q-175 0 -283.5 81t-108.5 228q0 168 124.5 259t359.5 91h209v51q0 72 -50 114t-139 42q-84 0 -138 -35t-63 -94h-278q15 154 147 247t340 93q223 0 344 -98t121 -285v-373q0 -39 16 -52t52 -13z
M752 434v21h-211q-91 0 -141 -36t-50 -102q0 -55 42 -87.5t114 -32.5q113 0 178.5 64.5t67.5 172.5z" />
    <glyph glyph-name="b" unicode="b" horiz-adv-x="1253" 
d="M707 1065q216 0 351.5 -145t135.5 -392q0 -243 -136.5 -391.5t-352.5 -148.5q-207 0 -324 155l-29 -143h-252v1434h289v-514q121 145 318 145zM641 223q118 0 189 83.5t71 219.5t-71 219.5t-189 83.5q-117 0 -186.5 -83t-69.5 -218q0 -136 69.5 -220.5t186.5 -84.5z" />
    <glyph glyph-name="c" unicode="c" horiz-adv-x="1165" 
d="M596 -12q-250 0 -393.5 144.5t-143.5 393.5q0 245 148.5 392t398.5 147q212 0 343.5 -108t162.5 -298h-301q-19 80 -72.5 125t-136.5 45q-113 0 -180.5 -84t-67.5 -219q0 -136 67.5 -219.5t180.5 -83.5q84 0 139 46.5t70 127.5h303q-31 -190 -167.5 -299.5t-350.5 -109.5
z" />
    <glyph glyph-name="d" unicode="d" horiz-adv-x="1253" 
d="M864 922v512h289v-1434h-252l-29 145q-122 -157 -323 -157q-216 0 -353 146.5t-137 393.5q0 242 137.5 389.5t350.5 147.5q204 0 317 -143zM612 223q117 0 186.5 83t69.5 218q0 136 -69.5 220.5t-186.5 84.5q-118 0 -188 -83.5t-70 -219.5t70 -219.5t188 -83.5z" />
    <glyph glyph-name="e" unicode="e" horiz-adv-x="1189" 
d="M621 -12q-261 0 -411.5 145t-150.5 391t148 393.5t393 147.5q237 0 383.5 -137.5t149.5 -368.5q0 -48 -9 -98h-764v-15q4 -112 71 -175.5t177 -63.5q89 0 146.5 38t76.5 111h285q-26 -160 -158.5 -264t-336.5 -104zM367 649h475q-15 96 -78 148.5t-162 52.5
q-95 0 -159 -54t-76 -147z" />
    <glyph glyph-name="f" unicode="f" horiz-adv-x="737" 
d="M2 809v244h174v77q0 148 80 226t238 78h235v-246h-184q-86 0 -86 -86v-49h270v-244h-264v-809h-289v809h-174z" />
    <glyph glyph-name="g" unicode="g" horiz-adv-x="1253" 
d="M874 907l25 146h254v-1022q0 -100 -32 -181t-98 -142.5t-176 -95.5t-257 -34q-224 0 -361 98.5t-147 278.5h291q43 -158 239 -158q124 0 191 61.5t67 182.5v111q-116 -146 -321 -146q-215 -2 -352.5 144t-137.5 387q0 239 137 384.5t351 145.5q205 0 327 -160zM612 238
q117 0 186.5 81t69.5 213q0 134 -69.5 218t-186.5 84t-187.5 -83t-70.5 -216t70 -215t188 -82z" />
    <glyph glyph-name="h" unicode="h" horiz-adv-x="1208" 
d="M700 1065q91 0 165.5 -26t134.5 -80.5t93 -150t33 -224.5v-584h-288v559q0 130 -53.5 199t-159.5 69q-111 0 -173.5 -75.5t-62.5 -210.5v-541h-289v1434h289v-510q117 141 311 141z" />
    <glyph glyph-name="i" unicode="i" horiz-adv-x="489" 
d="M246 1165q-71 0 -119.5 46.5t-48.5 115.5q0 70 48.5 117t119.5 47t119.5 -47t48.5 -117q0 -69 -48.5 -115.5t-119.5 -46.5zM100 0v1053h291v-1053h-291z" />
    <glyph glyph-name="j" unicode="j" horiz-adv-x="499" 
d="M256 1165q-71 0 -119.5 46.5t-48.5 115.5q0 70 48.5 117t119.5 47t119.5 -47t48.5 -117q0 -69 -48.5 -115.5t-119.5 -46.5zM-94 -410v244h100q54 0 79.5 28t25.5 89v1102h288v-1143q0 -149 -77.5 -234.5t-225.5 -85.5h-190z" />
    <glyph glyph-name="k" unicode="k" horiz-adv-x="1138" 
d="M100 0v1434h289v-828l412 447h325l-378 -414l399 -639h-334l-266 426l-158 -170v-256h-289z" />
    <glyph glyph-name="l" unicode="l" horiz-adv-x="489" 
d="M100 0v1434h289v-1434h-289z" />
    <glyph glyph-name="m" unicode="m" horiz-adv-x="1830" 
d="M1360 1065q84 0 152.5 -25t122.5 -78t84 -144t30 -214v-604h-289v588q0 239 -182 239q-95 0 -152 -67t-57 -185v-575h-289v588q0 239 -184 239q-94 0 -150.5 -68t-56.5 -186v-573h-289v1053h252l27 -131q108 140 309 143q226 4 316 -178q117 178 356 178z" />
    <glyph glyph-name="n" unicode="n" horiz-adv-x="1208" 
d="M705 1065q71 0 131.5 -15t114.5 -51t92.5 -90t60.5 -137t22 -188v-584h-288v555q0 272 -213 272q-112 0 -174 -75.5t-62 -212.5v-539h-289v1053h252l27 -131q119 143 326 143z" />
    <glyph glyph-name="o" unicode="o" 
d="M614 -12q-252 0 -403.5 147.5t-151.5 390.5t151.5 391t403.5 148t403.5 -148t151.5 -391q0 -244 -151.5 -391t-403.5 -147zM614 223q120 0 191.5 84t71.5 219t-71.5 219t-191.5 84t-190 -84t-70 -219t70 -219t190 -84z" />
    <glyph glyph-name="p" unicode="p" horiz-adv-x="1253" 
d="M705 1065q216 2 352.5 -146.5t136.5 -394.5q0 -243 -136 -389.5t-351 -146.5q-203 0 -318 145v-543h-289v1463h252l29 -146q119 158 324 158zM641 223q118 0 189 84.5t71 220.5q0 134 -71 217.5t-189 83.5q-117 0 -186.5 -83t-69.5 -218q0 -136 69.5 -220.5t186.5 -84.5z
" />
    <glyph glyph-name="q" unicode="q" horiz-adv-x="1253" 
d="M872 911l29 142h252v-1463h-289v545q-120 -147 -317 -147q-215 0 -351.5 145t-136.5 391q0 242 138 392.5t352 148.5q207 0 323 -154zM612 223q117 0 186.5 84t69.5 219q0 136 -69.5 219.5t-186.5 83.5q-118 0 -188 -83t-70 -218q0 -136 70.5 -220.5t187.5 -84.5z" />
    <glyph glyph-name="r" unicode="r" horiz-adv-x="770" 
d="M692 1053h49v-262h-114q-123 0 -180.5 -73.5t-57.5 -201.5v-516h-289v1053h262l27 -158q47 77 117 117.5t186 40.5z" />
    <glyph glyph-name="s" unicode="s" horiz-adv-x="1085" 
d="M51 350h275q8 -71 68 -113t163 -42q92 0 143.5 28.5t51.5 83.5q0 56 -50 78q-36 16 -172 34h-1l-1 1h-1h-1h-1h-1h-1h-1l-1 1h-1h-1h-1h-1h-1h-1l-1 1h-1h-1h-2q-81 10 -140.5 22t-118.5 34t-95.5 53.5t-59 80t-22.5 111.5q0 156 124.5 251t327.5 93q215 0 348.5 -90.5
t143.5 -249.5h-277q-6 63 -61 99t-143 36q-86 0 -136.5 -28.5t-50.5 -79.5q0 -19 6.5 -33.5t22 -25t32 -17.5t47.5 -12.5t56 -9t69 -8.5q6 -1 9 -1q81 -8 140 -19.5t119 -34.5t98 -56t61.5 -85.5t23.5 -121.5q0 -156 -132.5 -249t-346.5 -93q-221 0 -358 97t-146 265z" />
    <glyph glyph-name="t" unicode="t" horiz-adv-x="745" 
d="M176 301v508h-174v244h174v295h289v-295h242v-244h-242v-461q0 -56 23.5 -80t80.5 -24h144v-244h-236q-301 0 -301 301z" />
    <glyph glyph-name="u" unicode="u" horiz-adv-x="1191" 
d="M803 526v527h289v-1053h-256l-27 127q-115 -139 -309 -139q-68 0 -127 14t-113.5 48.5t-93 88t-61.5 137.5t-23 193v584h289v-545q0 -143 49 -212t155 -69q108 0 168 77t60 222z" />
    <glyph glyph-name="v" unicode="v" horiz-adv-x="1110" 
d="M377 0l-379 1053h309l254 -758l250 758h303l-379 -1053h-358z" />
    <glyph glyph-name="w" unicode="w" horiz-adv-x="1677" 
d="M344 0l-344 1053h305l211 -742l199 742h260l192 -744l215 744h295l-346 -1053h-307l-184 635l-189 -635h-307z" />
    <glyph glyph-name="x" unicode="x" horiz-adv-x="1105" 
d="M-6 0l391 537l-373 516h330l217 -312l223 312h312l-371 -516l391 -537h-330l-241 330l-240 -330h-309z" />
    <glyph glyph-name="y" unicode="y" horiz-adv-x="1118" 
d="M403 -6l-405 1059h307l256 -750l250 750h309l-467 -1203q-28 -73 -49.5 -115.5t-54 -78.5t-75 -51t-103.5 -15h-281v244h160q55 0 80 18t47 72z" />
    <glyph glyph-name="z" unicode="z" horiz-adv-x="1030" 
d="M70 809v244h891v-197l-527 -612h551v-244h-940v197l526 612h-501z" />
    <glyph glyph-name="braceleft" unicode="{" horiz-adv-x="706" 
d="M680 1243h-72q-72 -2 -110.5 -36t-38.5 -97q0 -28 8 -55l39 -154q8 -46 8 -67q0 -77 -51 -135.5t-144 -82.5q93 -15 145 -70.5t52 -137.5q0 -44 -10 -80l-39 -154q-8 -31 -8 -55q0 -64 38.5 -97.5t110.5 -35.5h72v-252h-59q-205 0 -322 84.5t-117 232.5q0 41 8 80l37 170
q4 20 4 57q0 131 -184 131v250q91 0 138.5 33.5t47.5 97.5q0 28 -6 58l-37 170q-8 39 -8 82q0 146 117.5 230.5t321.5 84.5h59v-252z" />
    <glyph glyph-name="bar" unicode="|" horiz-adv-x="532" 
d="M123 -266v1761h289v-1761h-289z" />
    <glyph glyph-name="braceright" unicode="}" horiz-adv-x="706" 
d="M659 739v-250q-186 0 -186 -131q0 -27 6 -57l37 -170q8 -39 8 -80q0 -148 -117 -232.5t-321 -84.5h-61v252h73q148 3 148 133q0 21 -6 55l-39 154q-11 40 -11 80q0 82 52 137.5t145 70.5q-93 25 -145 83t-52 135q0 25 11 67l39 154q6 30 6 55q0 63 -38 97.5t-110 35.5
h-73v252h61q204 0 321 -84.5t117 -230.5q0 -43 -8 -82l-37 -170q-8 -40 -8 -58q0 -131 188 -131z" />
    <glyph glyph-name="asciitilde" unicode="~" horiz-adv-x="1054" 
d="M309 408h-229q0 364 262 364q61 0 112 -17t78.5 -38t60 -38t60.5 -17q92 0 92 108h230q0 -362 -262 -362q-62 0 -113 17t-78.5 37t-60 37t-60.5 17q-50 0 -71 -27.5t-21 -80.5z" />
    <glyph glyph-name="uni00A0" unicode="&#xa0;" horiz-adv-x="507" 
 />
    <glyph glyph-name="exclamdown" unicode="&#xa1;" horiz-adv-x="591" 
d="M295 1446q75 0 124.5 -48.5t49.5 -121.5q0 -75 -49.5 -123.5t-124.5 -48.5q-74 0 -123 48.5t-49 123.5q0 73 49 121.5t123 48.5zM141 0l47 989h220l43 -989h-310z" />
    <glyph glyph-name="cent" unicode="&#xa2;" horiz-adv-x="1165" 
d="M811 586h303q-25 -156 -122.5 -259t-252.5 -137v-190h-254v184q-201 31 -313.5 171t-112.5 360q0 213 114 353.5t312 174.5v191h254v-193q155 -30 250.5 -132.5t122.5 -260.5h-301q-19 80 -72.5 125t-136.5 45q-113 0 -180.5 -84t-67.5 -219q0 -136 67.5 -219.5
t180.5 -83.5q84 0 139 46.5t70 127.5z" />
    <glyph glyph-name="sterling" unicode="&#xa3;" horiz-adv-x="1273" 
d="M57 547v209h148q-2 8 -11.5 44.5t-12 49t-8 40.5t-7.5 49.5t-2 45.5q0 204 145 331.5t365 127.5q244 0 388.5 -134t156.5 -366h-293q-8 117 -70 183.5t-172 66.5q-102 0 -164.5 -62.5t-62.5 -164.5q0 -18 2 -37.5t7.5 -44t9 -39t12.5 -47t12 -43.5h391v-209h-365
q6 -58 -26 -142.5t-82 -140.5l794 -4v-260h-1112v248q117 129 133 299h-176z" />
    <glyph glyph-name="currency" unicode="&#xa4;" horiz-adv-x="1359" 
d="M80 1114l203 203l143 -143q115 67 254 67t254 -67l143 143l203 -203l-139 -139q76 -121 76 -273q0 -134 -66 -253l129 -130l-203 -202l-125 127q-124 -78 -272 -78t-272 78l-125 -127l-203 202l129 130q-66 119 -66 253q0 152 76 273zM391 702q0 -125 82.5 -207.5
t206.5 -82.5t206.5 82.5t82.5 207.5q0 126 -82.5 209.5t-206.5 83.5t-206.5 -83.5t-82.5 -209.5z" />
    <glyph glyph-name="yen" unicode="&#xa5;" horiz-adv-x="1433" 
d="M1018 1434h342l-412 -723h252v-209h-354v-121h354v-209h-354v-172h-307v172h-355v209h355v121h-355v209h250l-426 723h363l317 -588z" />
    <glyph glyph-name="brokenbar" unicode="&#xa6;" horiz-adv-x="532" 
d="M123 748v747h289v-747h-289zM123 -266v737h289v-737h-289z" />
    <glyph glyph-name="section" unicode="&#xa7;" horiz-adv-x="1296" 
d="M1176 625q0 -180 -222 -265q131 -84 131 -235q0 -155 -120 -248.5t-320 -93.5q-193 0 -315 89.5t-131 242.5h280q4 -60 49 -94.5t117 -34.5t114.5 30t41.5 86q0 60 -44 90t-145 60q-210 62 -284 95q-158 70 -194 176q-13 38 -13 81q0 186 211 270q-123 79 -123 230
q0 155 120.5 248.5t321.5 93.5q193 0 314.5 -89t128.5 -243h-279q-5 60 -48.5 94.5t-115.5 34.5q-73 0 -116 -30.5t-43 -86.5q1 -60 44.5 -89.5t145.5 -59.5q212 -62 287 -95q158 -70 195 -178q12 -36 12 -79zM651 473q18 -4 49 -13.5t45 -13.5q129 45 129 154
q0 60 -50 90.5t-181 65.5q-57 15 -92 26q-131 -47 -131 -151q0 -61 50 -92t181 -66z" />
    <glyph glyph-name="dieresis" unicode="&#xa8;" horiz-adv-x="819" 
d="M43 1309q0 64 44.5 106.5t109.5 42.5q66 0 110.5 -42.5t44.5 -106.5q0 -63 -44.5 -106.5t-110.5 -43.5q-65 0 -109.5 43.5t-44.5 106.5zM469 1309q0 64 44.5 106.5t109.5 42.5q66 0 109.5 -42.5t43.5 -106.5q0 -63 -43.5 -106.5t-109.5 -43.5q-65 0 -109.5 43.5
t-44.5 106.5z" />
    <glyph glyph-name="copyright" unicode="&#xa9;" horiz-adv-x="1632" 
d="M63 717q0 154 57.5 289t157 231.5t239 152.5t298.5 56q211 0 383.5 -95t270.5 -262t98 -372t-98 -372t-270.5 -262t-383.5 -95q-159 0 -298.5 56t-239 152.5t-157 231.5t-57.5 289zM1411 717q0 126 -45.5 237t-124.5 189.5t-189.5 124t-236.5 45.5t-236.5 -45.5
t-189 -124t-123.5 -189.5t-45 -237t45 -237t123.5 -189.5t189 -124t236.5 -45.5t236.5 45.5t189.5 124t124.5 189.5t45.5 237zM1012 608h180q-20 -149 -120 -230t-255 -81q-124 0 -217 59t-139.5 154t-46.5 209t46.5 209t139.5 154t217 59q146 0 250.5 -82t124.5 -232h-182
q-18 66 -69.5 108t-121.5 42q-104 0 -160.5 -73t-56.5 -185q0 -111 57 -184.5t160 -73.5q73 0 123.5 39t69.5 108z" />
    <glyph glyph-name="ordfeminine" unicode="&#xaa;" horiz-adv-x="868" 
d="M96 965q0 102 80.5 157.5t233.5 55.5h120v30q0 43 -30.5 69t-85.5 26q-44 0 -73 -22t-34 -58h-196q7 106 91 164.5t220 58.5q144 0 223.5 -63.5t79.5 -184.5v-219q0 -25 10.5 -35t34.5 -10h18v-148h-94q-66 0 -97.5 28t-31.5 75v10q-64 -121 -219 -121q-110 0 -180 49
t-70 138zM530 1055v6h-127q-50 0 -79 -22.5t-29 -59.5q0 -32 24.5 -50t67.5 -18q65 0 104 40.5t39 103.5zM92 494v161h696v-161h-696z" />
    <glyph glyph-name="guillemotleft" unicode="&#xab;" horiz-adv-x="1183" 
d="M350 1053h289l-307 -527l307 -526h-289l-311 526zM848 1051h291l-308 -527l308 -526h-291l-309 526z" />
    <glyph glyph-name="logicalnot" unicode="&#xac;" horiz-adv-x="1054" 
d="M86 498v243h809v-571h-256v328h-553z" />
    <glyph glyph-name="uni00AD" unicode="&#xad;" horiz-adv-x="880" 
d="M799 465h-717v235h717v-235z" />
    <glyph glyph-name="registered" unicode="&#xae;" horiz-adv-x="1071" 
d="M80 1004q0 186 133 314t322 128q190 0 323 -127.5t133 -312.5q0 -123 -61 -225t-166 -160t-229 -58q-123 0 -227.5 58t-166 159.5t-61.5 223.5zM877 1004q0 145 -98.5 243.5t-243.5 98.5q-143 0 -240.5 -99.5t-97.5 -245.5q0 -142 97.5 -239.5t240.5 -97.5
q145 0 243.5 97.5t98.5 242.5zM362 772v467h189q84 0 135 -43.5t51 -114.5q0 -92 -88 -135l94 -174h-129l-79 148h-56v-148h-117zM545 1145h-66v-127h66q32 0 51.5 17t19.5 46q0 31 -18.5 47.5t-52.5 16.5z" />
    <glyph glyph-name="macron" unicode="&#xaf;" horiz-adv-x="819" 
d="M729 1206h-637v205h637v-205z" />
    <glyph glyph-name="degree" unicode="&#xb0;" horiz-adv-x="892" 
d="M80 1100q0 148 105.5 247t260.5 99q154 0 260.5 -99.5t106.5 -246.5q0 -148 -106 -248t-261 -100q-156 0 -261 99.5t-105 248.5zM612 1100q0 72 -47.5 119t-118.5 47t-118 -47t-47 -119t47 -120t118 -48t118.5 48t47.5 120z" />
    <glyph glyph-name="plusminus" unicode="&#xb1;" horiz-adv-x="1054" 
d="M969 811v-244h-312v-325h312v-242h-883v242h309v325h-309v244h309v328h262v-328h312z" />
    <glyph glyph-name="uni00B2" unicode="&#xb2;" horiz-adv-x="669" 
d="M225 1354h-192v14q0 127 83.5 205t209.5 78q134 0 217.5 -69.5t83.5 -182.5q0 -75 -37 -125.5t-101 -95.5l-151 -109h297v-176h-594v166l299 207q84 62 84 129q0 38 -27 61t-69 23q-47 0 -75 -30.5t-28 -88.5v-6z" />
    <glyph glyph-name="uni00B3" unicode="&#xb3;" horiz-adv-x="688" 
d="M244 1401h-193q3 118 81.5 185t215.5 67q132 0 208.5 -58t76.5 -149q0 -62 -35.5 -103t-89.5 -57q68 -14 106.5 -58.5t38.5 -111.5q0 -108 -83.5 -170.5t-231.5 -62.5q-150 0 -228.5 68t-80.5 198h196q3 -48 31 -75t80 -27q47 0 77.5 22.5t30.5 60.5q0 40 -28 62t-82 22
h-47v121h45q46 0 75 20.5t29 55.5t-25.5 56.5t-66.5 21.5q-46 0 -71.5 -23.5t-28.5 -64.5z" />
    <glyph glyph-name="acute" unicode="&#xb4;" horiz-adv-x="819" 
d="M520 1145h-211l150 289h329z" />
    <glyph glyph-name="uni00B5" unicode="&#xb5;" horiz-adv-x="1230" 
d="M1178 244h32v-244h-161q-87 0 -140 37t-65 104q-98 -153 -293 -153q-50 0 -94.5 15.5t-67.5 37.5v-451h-289v1463h289v-543q0 -283 211 -283q102 0 161.5 79.5t59.5 219.5v527h289v-744q0 -39 16 -52t52 -13z" />
    <glyph glyph-name="paragraph" unicode="&#xb6;" horiz-adv-x="1529" 
d="M1004 0h-275v453h-154q-239 0 -384.5 134t-145.5 355q0 223 145.5 357.5t384.5 134.5h429v-1434zM1135 0v1434h274v-1434h-274z" />
    <glyph glyph-name="periodcentered" unicode="&#xb7;" horiz-adv-x="507" 
d="M80 582q0 75 49.5 123.5t124.5 48.5q74 0 124 -49t50 -123q0 -73 -50 -121.5t-124 -48.5q-75 0 -124.5 48.5t-49.5 121.5z" />
    <glyph glyph-name="cedilla" unicode="&#xb8;" horiz-adv-x="819" 
d="M287 -172l59 238h158l-35 -127h23q90 0 143 -42t53 -116q0 -88 -60.5 -139.5t-162.5 -51.5h-244v142h191q57 0 57 51q0 45 -57 45h-125z" />
    <glyph glyph-name="uni00B9" unicode="&#xb9;" horiz-adv-x="458" 
d="M178 1577v61h187v-743l-191 -2v442q-18 -6 -39 -6h-127v174h117q25 0 39 21.5t14 52.5z" />
    <glyph glyph-name="ordmasculine" unicode="&#xba;" horiz-adv-x="870" 
d="M780 1112q0 -151 -94 -242.5t-252 -91.5q-156 0 -250 91.5t-94 242.5t94 242.5t250 91.5q158 0 252 -91.5t94 -242.5zM293 1112q0 -80 38 -129t103 -49q66 0 106 49t40 129t-39.5 129t-106.5 49q-65 0 -103 -49t-38 -129zM92 494v161h688v-161h-688z" />
    <glyph glyph-name="guillemotright" unicode="&#xbb;" horiz-adv-x="1183" 
d="M852 526l-307 527h291l311 -527l-311 -526h-291zM352 524l-305 527h289l311 -527l-311 -526h-289z" />
    <glyph glyph-name="onequarter" unicode="&#xbc;" horiz-adv-x="1521" 
d="M178 1372v62h187v-744l-191 -2v442q-18 -6 -39 -6h-127v174h117q25 0 39 21.5t14 52.5zM322 0h-232l907 1434h232zM834 332l301 413h241v-419h111v-164h-111v-162h-190v162h-352v170zM1186 326v243l-174 -243h174z" />
    <glyph glyph-name="onehalf" unicode="&#xbd;" horiz-adv-x="1527" 
d="M178 1372v62h187v-744l-191 -2v442q-18 -6 -39 -6h-127v174h117q25 0 39 21.5t14 52.5zM322 0h-232l907 1434h232zM1085 461h-192v14q0 127 83.5 205t209.5 78q134 0 217.5 -69.5t83.5 -182.5q0 -75 -36.5 -125.5t-100.5 -95.5l-152 -109h297v-176h-594v166l299 207
q84 62 84 129q0 38 -27 61t-69 23q-47 0 -75 -30.5t-28 -88.5v-6z" />
    <glyph glyph-name="threequarters" unicode="&#xbe;" horiz-adv-x="1751" 
d="M244 1196h-193q3 118 81.5 185t215.5 67q132 0 208.5 -58t76.5 -149q0 -62 -35.5 -103t-89.5 -57q68 -14 106.5 -58.5t38.5 -111.5q0 -108 -83.5 -170.5t-231.5 -62.5q-150 0 -228.5 68t-80.5 198h196q3 -48 31 -75t80 -27q47 0 77.5 23t30.5 61q0 40 -28 62t-82 22h-47
v120h45q46 0 75 20.5t29 55.5t-25.5 56.5t-66.5 21.5q-46 0 -71.5 -23.5t-28.5 -64.5zM551 0h-232l908 1434h231zM1063 332l301 413h242v-419h110v-164h-110v-162h-191v162h-352v170zM1415 326v243l-174 -243h174z" />
    <glyph glyph-name="questiondown" unicode="&#xbf;" horiz-adv-x="1085" 
d="M731 1280q0 -71 -48.5 -117.5t-121.5 -46.5q-74 0 -122 46t-48 118t48 119t122 47q72 0 121 -47t49 -119zM754 485h295q0 -102 -34.5 -192t-97.5 -158t-160.5 -107.5t-215.5 -39.5q-224 0 -356 107.5t-132 279.5q0 71 16 126.5t49.5 98.5t65 70.5t82.5 62.5
q93 62 130.5 106.5t37.5 106.5v27h271v-58q0 -62 -14.5 -109t-47 -84t-66.5 -62t-90 -58q-72 -45 -105.5 -92.5t-33.5 -108.5q0 -74 52.5 -119.5t138.5 -45.5q98 0 156.5 68t58.5 181z" />
    <glyph glyph-name="Agrave" unicode="&#xc0;" horiz-adv-x="1429" 
d="M602 1540l-256 295h330l143 -295h-217zM326 0h-318l524 1434h369l520 -1434h-329l-111 313h-545zM707 1106l-189 -545h379z" />
    <glyph glyph-name="Aacute" unicode="&#xc1;" horiz-adv-x="1429" 
d="M827 1546h-211l150 289h330zM326 0h-318l524 1434h369l520 -1434h-329l-111 313h-545zM707 1106l-189 -545h379z" />
    <glyph glyph-name="Acircumflex" unicode="&#xc2;" horiz-adv-x="1429" 
d="M842 1544l-125 121l-127 -121h-264l262 291h258l262 -291h-266zM326 0h-318l524 1434h369l520 -1434h-329l-111 313h-545zM707 1106l-189 -545h379z" />
    <glyph glyph-name="Atilde" unicode="&#xc3;" horiz-adv-x="1429" 
d="M633 1655q-31 0 -49.5 -23t-18.5 -57h-172v41q0 94 55.5 157.5t141.5 63.5q40 0 72.5 -13.5t50 -29.5t41.5 -29.5t49 -13.5q30 0 47.5 22.5t17.5 57.5h172v-43q0 -94 -56 -157.5t-140 -63.5q-41 0 -74.5 13.5t-51 30.5t-40.5 30.5t-45 13.5zM326 0h-318l524 1434h369
l520 -1434h-329l-111 313h-545zM707 1106l-189 -545h379z" />
    <glyph glyph-name="Adieresis" unicode="&#xc4;" horiz-adv-x="1429" 
d="M350 1710q0 64 44.5 107t109.5 43q66 0 110.5 -43t44.5 -107q0 -63 -44.5 -106t-110.5 -43q-65 0 -109.5 43t-44.5 106zM776 1710q0 64 44.5 107t109.5 43q66 0 109.5 -42.5t43.5 -107.5q0 -63 -43.5 -106t-109.5 -43q-65 0 -109.5 43t-44.5 106zM326 0h-318l524 1434
h369l520 -1434h-329l-111 313h-545zM707 1106l-189 -545h379z" />
    <glyph glyph-name="Aring" unicode="&#xc5;" horiz-adv-x="1429" 
d="M909 1413l512 -1413h-329l-111 313h-545l-110 -313h-318l516 1409q-78 72 -78 176q0 103 78.5 175.5t188.5 72.5q112 0 190 -72.5t78 -175.5q0 -100 -72 -172zM713 1704q-50 0 -84.5 -34t-34.5 -85q0 -52 34.5 -86.5t84.5 -34.5q51 0 86 34.5t35 86.5q0 51 -35 85t-86 34
zM707 1106l-189 -545h379z" />
    <glyph glyph-name="AE" unicode="&#xc6;" horiz-adv-x="2039" 
d="M1298 596v-332h680v-264h-987v303h-504l-182 -303h-317l839 1434h1127v-265h-656v-321h533v-252h-533zM991 1174l-362 -623h362v623z" />
    <glyph glyph-name="Ccedilla" unicode="&#xc7;" horiz-adv-x="1433" 
d="M748 248q128 0 212.5 70.5t112.5 193.5h309q-25 -219 -178.5 -361t-388.5 -161l-14 -51h22q90 0 143.5 -42t53.5 -116q0 -88 -60.5 -139.5t-162.5 -51.5h-244v142h190q58 0 58 51q0 45 -58 45h-125l41 164q-278 29 -435.5 223t-157.5 502q0 332 189 530.5t513 198.5
q253 0 420.5 -144.5t195.5 -379.5h-311q-28 122 -112 193t-209 71q-172 0 -272.5 -129.5t-100.5 -339.5q0 -209 99 -339t270 -130z" />
    <glyph glyph-name="Egrave" unicode="&#xc8;" horiz-adv-x="1169" 
d="M504 1540l-256 295h330l143 -295h-217zM123 0v1434h962v-265h-655v-321h533v-252h-533v-332h678v-264h-985z" />
    <glyph glyph-name="Eacute" unicode="&#xc9;" horiz-adv-x="1169" 
d="M729 1546h-211l150 289h329zM123 0v1434h962v-265h-655v-321h533v-252h-533v-332h678v-264h-985z" />
    <glyph glyph-name="Ecircumflex" unicode="&#xca;" horiz-adv-x="1169" 
d="M743 1544l-125 121l-126 -121h-265l262 291h259l262 -291h-267zM123 0v1434h962v-265h-655v-321h533v-252h-533v-332h678v-264h-985z" />
    <glyph glyph-name="Edieresis" unicode="&#xcb;" horiz-adv-x="1169" 
d="M252 1710q0 64 44.5 107t109.5 43q66 0 110.5 -43t44.5 -107q0 -63 -44.5 -106t-110.5 -43q-65 0 -109.5 43t-44.5 106zM678 1710q0 64 44 107t109 43q66 0 110 -43t44 -107q0 -63 -44 -106t-110 -43q-65 0 -109 43t-44 106zM123 0v1434h962v-265h-655v-321h533v-252
h-533v-332h678v-264h-985z" />
    <glyph glyph-name="Igrave" unicode="&#xcc;" horiz-adv-x="550" 
d="M160 1540l-256 295h329l144 -295h-217zM123 0v1434h307v-1434h-307z" />
    <glyph glyph-name="Iacute" unicode="&#xcd;" horiz-adv-x="550" 
d="M385 1546h-211l150 289h329zM123 0v1434h307v-1434h-307z" />
    <glyph glyph-name="Icircumflex" unicode="&#xce;" horiz-adv-x="550" 
d="M399 1544l-125 121l-127 -121h-264l262 291h258l263 -291h-267zM123 0v1434h307v-1434h-307z" />
    <glyph glyph-name="Idieresis" unicode="&#xcf;" horiz-adv-x="550" 
d="M-92 1710q0 64 44 107t109 43q66 0 111 -43t45 -107q0 -63 -45 -106t-111 -43q-65 0 -109 43t-44 106zM334 1710q0 64 44 107t109 43q66 0 110 -43t44 -107q0 -63 -44 -106t-110 -43q-65 0 -109 43t-44 106zM123 0v1434h307v-1434h-307z" />
    <glyph glyph-name="Eth" unicode="&#xd0;" horiz-adv-x="1503" 
d="M174 1434h522q220 0 389.5 -90.5t262 -253t92.5 -371.5q0 -208 -92.5 -371.5t-262 -255.5t-389.5 -92h-522v621h-162v213h162v600zM481 256h215q202 0 315 127.5t113 335.5q0 209 -113 334t-315 125h-215v-344h230v-213h-230v-365z" />
    <glyph glyph-name="Ntilde" unicode="&#xd1;" horiz-adv-x="1433" 
d="M610 1655q-31 0 -49 -23t-18 -57h-172v41q0 95 55 158t141 63q40 0 72.5 -13.5t50 -29.5t41.5 -29.5t49 -13.5q30 0 48 22.5t18 57.5h172v-43q0 -94 -56.5 -157.5t-140.5 -63.5q-41 0 -74.5 13.5t-51 30.5t-40.5 30.5t-45 13.5zM424 0h-301v1434h278l609 -904v904h303
v-1434h-281l-608 903v-903z" />
    <glyph glyph-name="Ograve" unicode="&#xd2;" horiz-adv-x="1550" 
d="M662 1540l-256 295h329l144 -295h-217zM1487 717q0 -207 -89 -373t-252 -261t-370 -95t-370 95t-251.5 261t-88.5 373t88.5 373t251.5 261t370 95t370 -95t252 -261t89 -373zM379 717q0 -205 109 -337t288 -132q178 0 286.5 132t108.5 337t-108.5 337t-286.5 132
q-179 0 -288 -132t-109 -337z" />
    <glyph glyph-name="Oacute" unicode="&#xd3;" horiz-adv-x="1550" 
d="M887 1546h-211l149 289h330zM1487 717q0 -207 -89 -373t-252 -261t-370 -95t-370 95t-251.5 261t-88.5 373t88.5 373t251.5 261t370 95t370 -95t252 -261t89 -373zM379 717q0 -205 109 -337t288 -132q178 0 286.5 132t108.5 337t-108.5 337t-286.5 132q-179 0 -288 -132
t-109 -337z" />
    <glyph glyph-name="Ocircumflex" unicode="&#xd4;" horiz-adv-x="1550" 
d="M901 1544l-125 121l-127 -121h-264l262 291h258l262 -291h-266zM1487 717q0 -207 -89 -373t-252 -261t-370 -95t-370 95t-251.5 261t-88.5 373t88.5 373t251.5 261t370 95t370 -95t252 -261t89 -373zM379 717q0 -205 109 -337t288 -132q178 0 286.5 132t108.5 337
t-108.5 337t-286.5 132q-179 0 -288 -132t-109 -337z" />
    <glyph glyph-name="Otilde" unicode="&#xd5;" horiz-adv-x="1550" 
d="M692 1655q-31 0 -49 -23t-18 -57h-172v41q0 95 55 158t141 63q40 0 72.5 -13.5t50 -29.5t41.5 -29.5t49 -13.5q30 0 48 22.5t18 57.5h172v-43q0 -94 -56.5 -157.5t-140.5 -63.5q-41 0 -74.5 13.5t-51 30.5t-40.5 30.5t-45 13.5zM1487 717q0 -207 -89 -373t-252 -261
t-370 -95t-370 95t-251.5 261t-88.5 373t88.5 373t251.5 261t370 95t370 -95t252 -261t89 -373zM379 717q0 -205 109 -337t288 -132q178 0 286.5 132t108.5 337t-108.5 337t-286.5 132q-179 0 -288 -132t-109 -337z" />
    <glyph glyph-name="Odieresis" unicode="&#xd6;" horiz-adv-x="1550" 
d="M410 1710q0 64 44 107t109 43q66 0 111 -43t45 -107q0 -63 -45 -106t-111 -43q-65 0 -109 43t-44 106zM836 1710q0 64 44 107t109 43q66 0 110 -43t44 -107q0 -63 -44 -106t-110 -43q-65 0 -109 43t-44 106zM1487 717q0 -207 -89 -373t-252 -261t-370 -95t-370 95
t-251.5 261t-88.5 373t88.5 373t251.5 261t370 95t370 -95t252 -261t89 -373zM379 717q0 -205 109 -337t288 -132q178 0 286.5 132t108.5 337t-108.5 337t-286.5 132q-179 0 -288 -132t-109 -337z" />
    <glyph glyph-name="multiply" unicode="&#xd7;" horiz-adv-x="1054" 
d="M72 846l184 186l279 -278l270 272l172 -172l-272 -270l278 -279l-184 -186l-279 280l-272 -272l-170 170l272 272z" />
    <glyph glyph-name="Oslash" unicode="&#xd8;" horiz-adv-x="1550" 
d="M1339 1446l148 -148l-135 -139q135 -190 135 -442q0 -207 -89 -373t-252 -261t-370 -95q-246 0 -430 135l-131 -135l-149 149l133 137q-133 192 -133 443q0 207 88.5 373t251.5 261t370 95q248 0 430 -137zM379 717q0 -116 39 -219l592 610q-93 78 -234 78
q-179 0 -288 -132t-109 -337zM1171 717q0 128 -38 217l-590 -608q100 -78 233 -78q178 0 286.5 132t108.5 337z" />
    <glyph glyph-name="Ugrave" unicode="&#xd9;" horiz-adv-x="1402" 
d="M588 1540l-256 295h330l143 -295h-217zM113 618v816h307v-832q0 -174 67.5 -262t212.5 -88q146 0 214.5 88t68.5 262v832h307v-816q0 -307 -150.5 -468.5t-439.5 -161.5q-288 0 -437.5 161.5t-149.5 468.5z" />
    <glyph glyph-name="Uacute" unicode="&#xda;" horiz-adv-x="1402" 
d="M813 1546h-211l150 289h329zM113 618v816h307v-832q0 -174 67.5 -262t212.5 -88q146 0 214.5 88t68.5 262v832h307v-816q0 -307 -150.5 -468.5t-439.5 -161.5q-288 0 -437.5 161.5t-149.5 468.5z" />
    <glyph glyph-name="Ucircumflex" unicode="&#xdb;" horiz-adv-x="1402" 
d="M827 1544l-125 121l-127 -121h-264l262 291h258l263 -291h-267zM113 618v816h307v-832q0 -174 67.5 -262t212.5 -88q146 0 214.5 88t68.5 262v832h307v-816q0 -307 -150.5 -468.5t-439.5 -161.5q-288 0 -437.5 161.5t-149.5 468.5z" />
    <glyph glyph-name="Udieresis" unicode="&#xdc;" horiz-adv-x="1402" 
d="M336 1710q0 64 44 107t109 43q66 0 111 -43t45 -107q0 -63 -45 -106t-111 -43q-65 0 -109 43t-44 106zM762 1710q0 64 44 107t109 43q66 0 110 -43t44 -107q0 -63 -44 -106t-110 -43q-65 0 -109 43t-44 106zM113 618v816h307v-832q0 -174 67.5 -262t212.5 -88
q146 0 214.5 88t68.5 262v832h307v-816q0 -307 -150.5 -468.5t-439.5 -161.5q-288 0 -437.5 161.5t-149.5 468.5z" />
    <glyph glyph-name="Yacute" unicode="&#xdd;" horiz-adv-x="1359" 
d="M799 1546h-211l149 289h330zM526 532l-526 902h358l322 -588l338 588h342l-526 -902v-532h-308v532z" />
    <glyph glyph-name="Thorn" unicode="&#xde;" horiz-adv-x="1275" 
d="M123 0v1434h307v-222h246q256 0 403.5 -128t147.5 -349t-148.5 -348t-400.5 -127h-248v-260h-307zM670 956h-240v-440h238q115 0 181 58t66 161q0 105 -65.5 163t-179.5 58z" />
    <glyph glyph-name="germandbls" unicode="&#xdf;" horiz-adv-x="1275" 
d="M752 -12q-127 3 -222 35v213q81 -29 177 -29q101 0 165 54t64 147q0 100 -77 154t-206 54q-17 0 -63 -4v215q126 0 186 58t60 143q0 86 -55 136t-152 50q-99 0 -158 -60t-59 -159v-995h-289v981q0 118 40.5 209t111.5 146t161 82.5t195 27.5q224 0 360.5 -104.5
t136.5 -278.5q-1 -108 -55 -189.5t-141 -117.5q140 -33 217.5 -121.5t77.5 -231.5q0 -193 -134 -303t-341 -112z" />
    <glyph glyph-name="agrave" unicode="&#xe0;" horiz-adv-x="1148" 
d="M528 1454l144 -295h-217l-256 295h329zM1104 244h33v-244h-148q-106 0 -151 45.5t-43 126.5q-116 -184 -344 -184q-175 0 -283.5 81t-108.5 228q0 168 124.5 259t359.5 91h209v51q0 72 -50 114t-139 42q-84 0 -138 -35t-63 -94h-278q15 154 147 247t340 93q223 0 344 -98
t121 -285v-373q0 -39 16 -52t52 -13zM752 434v21h-211q-91 0 -141 -36t-50 -102q0 -55 42 -87.5t114 -32.5q113 0 178.5 64.5t67.5 172.5z" />
    <glyph glyph-name="aacute" unicode="&#xe1;" horiz-adv-x="1148" 
d="M618 1454h330l-268 -289h-211zM1104 244h33v-244h-148q-106 0 -151 45.5t-43 126.5q-116 -184 -344 -184q-175 0 -283.5 81t-108.5 228q0 168 124.5 259t359.5 91h209v51q0 72 -50 114t-139 42q-84 0 -138 -35t-63 -94h-278q15 154 147 247t340 93q223 0 344 -98
t121 -285v-373q0 -39 16 -52t52 -13zM752 434v21h-211q-91 0 -141 -36t-50 -102q0 -55 42 -87.5t114 -32.5q113 0 178.5 64.5t67.5 172.5z" />
    <glyph glyph-name="acircumflex" unicode="&#xe2;" horiz-adv-x="1148" 
d="M694 1163l-125 121l-127 -121h-264l262 291h258l263 -291h-267zM1104 244h33v-244h-148q-106 0 -151 45.5t-43 126.5q-116 -184 -344 -184q-175 0 -283.5 81t-108.5 228q0 168 124.5 259t359.5 91h209v51q0 72 -50 114t-139 42q-84 0 -138 -35t-63 -94h-278
q15 154 147 247t340 93q223 0 344 -98t121 -285v-373q0 -39 16 -52t52 -13zM752 434v21h-211q-91 0 -141 -36t-50 -102q0 -55 42 -87.5t114 -32.5q113 0 178.5 64.5t67.5 172.5z" />
    <glyph glyph-name="atilde" unicode="&#xe3;" horiz-adv-x="1148" 
d="M485 1274q-31 0 -49 -23t-18 -57h-172v41q0 95 55 158t141 63q40 0 72.5 -13.5t50 -29.5t41.5 -29.5t49 -13.5q30 0 48 22.5t18 57.5h172v-43q0 -94 -56.5 -157.5t-140.5 -63.5q-41 0 -74.5 14t-51 30t-40.5 30t-45 14zM1104 244h33v-244h-148q-106 0 -151 45.5
t-43 126.5q-116 -184 -344 -184q-175 0 -283.5 81t-108.5 228q0 168 124.5 259t359.5 91h209v51q0 72 -50 114t-139 42q-84 0 -138 -35t-63 -94h-278q15 154 147 247t340 93q223 0 344 -98t121 -285v-373q0 -39 16 -52t52 -13zM752 434v21h-211q-91 0 -141 -36t-50 -102
q0 -55 42 -87.5t114 -32.5q113 0 178.5 64.5t67.5 172.5z" />
    <glyph glyph-name="adieresis" unicode="&#xe4;" horiz-adv-x="1148" 
d="M356 1180q-65 0 -109 43t-44 106q0 64 44 107t109 43q66 0 111 -43t45 -107q0 -63 -45 -106t-111 -43zM782 1180q-65 0 -109 43t-44 106q0 64 44 107t109 43q66 0 110 -43t44 -107q0 -63 -44 -106t-110 -43zM1104 244h33v-244h-148q-106 0 -151 45.5t-43 126.5
q-116 -184 -344 -184q-175 0 -283.5 81t-108.5 228q0 168 124.5 259t359.5 91h209v51q0 72 -50 114t-139 42q-84 0 -138 -35t-63 -94h-278q15 154 147 247t340 93q223 0 344 -98t121 -285v-373q0 -39 16 -52t52 -13zM752 434v21h-211q-91 0 -141 -36t-50 -102
q0 -55 42 -87.5t114 -32.5q113 0 178.5 64.5t67.5 172.5z" />
    <glyph glyph-name="aring" unicode="&#xe5;" horiz-adv-x="1148" 
d="M569 1133q-112 0 -189 71.5t-77 175.5q0 103 77 175.5t189 72.5t189.5 -72.5t77.5 -175.5q0 -104 -77 -175.5t-190 -71.5zM569 1499q-51 0 -84.5 -34t-33.5 -85q0 -52 33.5 -86t84.5 -34t85 34t34 86q0 51 -34 85t-85 34zM1104 244h33v-244h-148q-106 0 -151 45.5
t-43 126.5q-116 -184 -344 -184q-175 0 -283.5 81t-108.5 228q0 168 124.5 259t359.5 91h209v51q0 72 -50 114t-139 42q-84 0 -138 -35t-63 -94h-278q15 154 147 247t340 93q223 0 344 -98t121 -285v-373q0 -39 16 -52t52 -13zM752 434v21h-211q-91 0 -141 -36t-50 -102
q0 -55 42 -87.5t114 -32.5q113 0 178.5 64.5t67.5 172.5z" />
    <glyph glyph-name="ae" unicode="&#xe6;" horiz-adv-x="1863" 
d="M1796 461h-762v-8q2 -105 69 -175.5t175 -70.5q90 0 148.5 38t78.5 111h285q-26 -159 -161 -263.5t-341 -104.5q-138 0 -242.5 50t-166.5 142q-147 -192 -414 -192q-114 0 -205 34.5t-146 106t-55 168.5q0 162 124 248t360 86h209v67q0 71 -53.5 113.5t-143.5 42.5
q-79 0 -131.5 -35t-61.5 -94h-278q15 154 147 247t340 93q117 0 213.5 -36.5t151.5 -104.5q132 141 352 141q231 0 373 -137.5t143 -368.5q0 -54 -8 -98zM1276 850q-95 0 -159.5 -54t-76.5 -147h473q-13 96 -76 148.5t-161 52.5zM752 422v24h-199q-97 0 -150 -32.5
t-53 -96.5q0 -55 42 -87.5t114 -32.5q113 0 179.5 61.5t66.5 163.5z" />
    <glyph glyph-name="ccedilla" unicode="&#xe7;" horiz-adv-x="1165" 
d="M811 397h303q-28 -171 -141.5 -277t-294.5 -128l-14 -53h22q90 0 143.5 -42t53.5 -116q0 -87 -61 -139t-163 -52h-243v142h190q58 0 58 51q0 45 -58 45h-125l41 164q-217 22 -340 163t-123 371q0 245 148.5 392t398.5 147q212 0 343.5 -108t162.5 -298h-301
q-19 80 -72.5 125t-136.5 45q-113 0 -180.5 -84t-67.5 -219q0 -136 67.5 -219.5t180.5 -83.5q84 0 139 46.5t70 127.5z" />
    <glyph glyph-name="egrave" unicode="&#xe8;" horiz-adv-x="1189" 
d="M483 1159l-256 295h330l143 -295h-217zM621 -12q-261 0 -411.5 145t-150.5 391t148 393.5t393 147.5q237 0 383.5 -137.5t149.5 -368.5q0 -48 -9 -98h-764v-15q4 -112 71 -175.5t177 -63.5q89 0 146.5 38t76.5 111h285q-26 -160 -158.5 -264t-336.5 -104zM367 649h475
q-15 96 -78 148.5t-162 52.5q-95 0 -159 -54t-76 -147z" />
    <glyph glyph-name="eacute" unicode="&#xe9;" horiz-adv-x="1189" 
d="M709 1165h-211l149 289h330zM621 -12q-261 0 -411.5 145t-150.5 391t148 393.5t393 147.5q237 0 383.5 -137.5t149.5 -368.5q0 -48 -9 -98h-764v-15q4 -112 71 -175.5t177 -63.5q89 0 146.5 38t76.5 111h285q-26 -160 -158.5 -264t-336.5 -104zM367 649h475
q-15 96 -78 148.5t-162 52.5q-95 0 -159 -54t-76 -147z" />
    <glyph glyph-name="ecircumflex" unicode="&#xea;" horiz-adv-x="1189" 
d="M723 1163l-125 121l-127 -121h-264l262 291h258l262 -291h-266zM621 -12q-261 0 -411.5 145t-150.5 391t148 393.5t393 147.5q237 0 383.5 -137.5t149.5 -368.5q0 -48 -9 -98h-764v-15q4 -112 71 -175.5t177 -63.5q89 0 146.5 38t76.5 111h285q-26 -160 -158.5 -264
t-336.5 -104zM367 649h475q-15 96 -78 148.5t-162 52.5q-95 0 -159 -54t-76 -147z" />
    <glyph glyph-name="edieresis" unicode="&#xeb;" horiz-adv-x="1189" 
d="M231 1329q0 64 44.5 107t109.5 43q66 0 111 -43t45 -107q0 -63 -45 -106t-111 -43q-65 0 -109.5 43t-44.5 106zM657 1329q0 64 44.5 107t109.5 43q66 0 110 -43t44 -107q0 -63 -44 -106t-110 -43q-65 0 -109.5 43t-44.5 106zM621 -12q-261 0 -411.5 145t-150.5 391
t148 393.5t393 147.5q237 0 383.5 -137.5t149.5 -368.5q0 -48 -9 -98h-764v-15q4 -112 71 -175.5t177 -63.5q89 0 146.5 38t76.5 111h285q-26 -160 -158.5 -264t-336.5 -104zM367 649h475q-15 96 -78 148.5t-162 52.5q-95 0 -159 -54t-76 -147z" />
    <glyph glyph-name="igrave" unicode="&#xec;" horiz-adv-x="489" 
d="M131 1159l-256 295h330l143 -295h-217zM100 0v1053h291v-1053h-291z" />
    <glyph glyph-name="iacute" unicode="&#xed;" horiz-adv-x="489" 
d="M356 1165h-211l150 289h330zM100 0v1053h291v-1053h-291z" />
    <glyph glyph-name="icircumflex" unicode="&#xee;" horiz-adv-x="489" 
d="M371 1163l-125 121l-127 -121h-264l262 291h258l262 -291h-266zM100 0v1053h291v-1053h-291z" />
    <glyph glyph-name="idieresis" unicode="&#xef;" horiz-adv-x="489" 
d="M-121 1329q0 64 44.5 107t109.5 43q66 0 110.5 -43t44.5 -107q0 -63 -44.5 -106t-110.5 -43q-65 0 -109.5 43t-44.5 106zM305 1329q0 64 44.5 107t109.5 43q66 0 109.5 -42.5t43.5 -107.5q0 -63 -43.5 -106t-109.5 -43q-65 0 -109.5 43t-44.5 106zM100 0v1053h291v-1053
h-291z" />
    <glyph glyph-name="eth" unicode="&#xf0;" horiz-adv-x="1241" 
d="M993 1307l-159 -95q327 -268 327 -653q0 -120 -34.5 -222t-101.5 -180.5t-175.5 -123.5t-247.5 -45q-246 0 -394.5 136.5t-148.5 348.5q0 112 41 201t109.5 143t152 82.5t175.5 28.5q86 0 155.5 -24t147.5 -83q-62 141 -219 266l-234 -137l-92 156l156 92
q-59 35 -197 100l164 148q125 -45 254 -119l229 135zM602 219q119 0 190.5 72t71.5 188q0 113 -73 180.5t-189 67.5q-110 0 -179 -71.5t-69 -184.5q0 -112 69 -182t179 -70z" />
    <glyph glyph-name="ntilde" unicode="&#xf1;" horiz-adv-x="1208" 
d="M575 1274q-31 0 -49 -23t-18 -57h-172v41q0 95 55 158t141 63q40 0 72.5 -13.5t50 -29.5t41.5 -29.5t49 -13.5q30 0 48 22.5t18 57.5h172v-43q0 -94 -56.5 -157.5t-140.5 -63.5q-41 0 -74.5 14t-51 30t-40.5 30t-45 14zM705 1065q71 0 131.5 -15t114.5 -51t92.5 -90
t60.5 -137t22 -188v-584h-288v555q0 272 -213 272q-112 0 -174 -75.5t-62 -212.5v-539h-289v1053h252l27 -131q119 143 326 143z" />
    <glyph glyph-name="ograve" unicode="&#xf2;" 
d="M500 1159l-256 295h329l144 -295h-217zM614 -12q-252 0 -403.5 147.5t-151.5 390.5t151.5 391t403.5 148t403.5 -148t151.5 -391q0 -244 -151.5 -391t-403.5 -147zM614 223q120 0 191.5 84t71.5 219t-71.5 219t-191.5 84t-190 -84t-70 -219t70 -219t190 -84z" />
    <glyph glyph-name="oacute" unicode="&#xf3;" 
d="M725 1165h-211l150 289h329zM614 -12q-252 0 -403.5 147.5t-151.5 390.5t151.5 391t403.5 148t403.5 -148t151.5 -391q0 -244 -151.5 -391t-403.5 -147zM614 223q120 0 191.5 84t71.5 219t-71.5 219t-191.5 84t-190 -84t-70 -219t70 -219t190 -84z" />
    <glyph glyph-name="ocircumflex" unicode="&#xf4;" 
d="M739 1163l-125 121l-127 -121h-264l262 291h258l263 -291h-267zM614 -12q-252 0 -403.5 147.5t-151.5 390.5t151.5 391t403.5 148t403.5 -148t151.5 -391q0 -244 -151.5 -391t-403.5 -147zM614 223q120 0 191.5 84t71.5 219t-71.5 219t-191.5 84t-190 -84t-70 -219
t70 -219t190 -84z" />
    <glyph glyph-name="otilde" unicode="&#xf5;" 
d="M530 1274q-31 0 -49 -23t-18 -57h-172v41q0 95 55 158t141 63q40 0 72.5 -13.5t50 -29.5t41.5 -29.5t49 -13.5q30 0 48 22.5t18 57.5h172v-43q0 -94 -56.5 -157.5t-140.5 -63.5q-41 0 -74.5 14t-51 30t-40.5 30t-45 14zM614 -12q-252 0 -403.5 147.5t-151.5 390.5
t151.5 391t403.5 148t403.5 -148t151.5 -391q0 -244 -151.5 -391t-403.5 -147zM614 223q120 0 191.5 84t71.5 219t-71.5 219t-191.5 84t-190 -84t-70 -219t70 -219t190 -84z" />
    <glyph glyph-name="odieresis" unicode="&#xf6;" 
d="M248 1329q0 64 44 107t109 43q66 0 111 -43t45 -107q0 -63 -45 -106t-111 -43q-65 0 -109 43t-44 106zM674 1329q0 64 44 107t109 43q66 0 110 -43t44 -107q0 -63 -44 -106t-110 -43q-65 0 -109 43t-44 106zM614 -12q-252 0 -403.5 147.5t-151.5 390.5t151.5 391
t403.5 148t403.5 -148t151.5 -391q0 -244 -151.5 -391t-403.5 -147zM614 223q120 0 191.5 84t71.5 219t-71.5 219t-191.5 84t-190 -84t-70 -219t70 -219t190 -84z" />
    <glyph glyph-name="divide" unicode="&#xf7;" horiz-adv-x="1054" 
d="M360 971q0 70 48 117t120 47q71 0 118.5 -47t47.5 -117q0 -71 -47.5 -117.5t-118.5 -46.5q-72 0 -120 46t-48 118zM969 461h-883v244h883v-244zM360 195q0 71 47.5 117t120.5 46q71 0 118.5 -46t47.5 -117q0 -70 -47.5 -117t-118.5 -47q-72 0 -120 47t-48 117z" />
    <glyph glyph-name="oslash" unicode="&#xf8;" 
d="M1165 932l-88 -86q92 -134 92 -322q0 -242 -152 -389t-405 -147q-191 0 -327 88l-90 -88l-134 133l91 86q-93 136 -93 317q-2 245 149.5 393t403.5 148q194 0 330 -88l92 88zM342 524q0 -57 16 -116l400 389q-59 41 -146 41q-124 0 -197 -87.5t-73 -226.5zM612 215
q125 0 199 85.5t74 223.5q0 56 -17 119l-399 -389q61 -39 143 -39z" />
    <glyph glyph-name="ugrave" unicode="&#xf9;" horiz-adv-x="1191" 
d="M547 1454l143 -295h-217l-256 295h330zM803 526v527h289v-1053h-256l-27 127q-115 -139 -309 -139q-68 0 -127 14t-113.5 48.5t-93 88t-61.5 137.5t-23 193v584h289v-545q0 -143 49 -212t155 -69q108 0 168 77t60 222z" />
    <glyph glyph-name="uacute" unicode="&#xfa;" horiz-adv-x="1191" 
d="M637 1454h330l-269 -289h-211zM803 526v527h289v-1053h-256l-27 127q-115 -139 -309 -139q-68 0 -127 14t-113.5 48.5t-93 88t-61.5 137.5t-23 193v584h289v-545q0 -143 49 -212t155 -69q108 0 168 77t60 222z" />
    <glyph glyph-name="ucircumflex" unicode="&#xfb;" horiz-adv-x="1191" 
d="M713 1163l-125 121l-127 -121h-264l262 291h258l262 -291h-266zM803 526v527h289v-1053h-256l-27 127q-115 -139 -309 -139q-68 0 -127 14t-113.5 48.5t-93 88t-61.5 137.5t-23 193v584h289v-545q0 -143 49 -212t155 -69q108 0 168 77t60 222z" />
    <glyph glyph-name="udieresis" unicode="&#xfc;" horiz-adv-x="1191" 
d="M375 1180q-65 0 -109.5 43t-44.5 106q0 64 44.5 107t109.5 43q66 0 110.5 -43t44.5 -107q0 -63 -44.5 -106t-110.5 -43zM801 1180q-65 0 -109.5 43t-44.5 106q0 64 44.5 107t109.5 43q66 0 109.5 -42.5t43.5 -107.5q0 -63 -43.5 -106t-109.5 -43zM803 526v527h289v-1053
h-256l-27 127q-115 -139 -309 -139q-68 0 -127 14t-113.5 48.5t-93 88t-61.5 137.5t-23 193v584h289v-545q0 -143 49 -212t155 -69q108 0 168 77t60 222z" />
    <glyph glyph-name="yacute" unicode="&#xfd;" horiz-adv-x="1118" 
d="M666 1165h-211l149 289h330zM403 -6l-405 1059h307l256 -750l250 750h309l-467 -1203q-28 -73 -49.5 -115.5t-54 -78.5t-75 -51t-103.5 -15h-281v244h160q55 0 80 18t47 72z" />
    <glyph glyph-name="thorn" unicode="&#xfe;" horiz-adv-x="1253" 
d="M100 -410v1844h279v-529q121 160 326 160q216 2 352.5 -146.5t136.5 -394.5q0 -243 -136 -389.5t-351 -146.5q-208 0 -318 147v-545h-289zM901 528q0 134 -71 217.5t-189 83.5q-117 0 -186.5 -83t-69.5 -218q0 -136 69.5 -220.5t186.5 -84.5q118 0 189 84.5t71 220.5z
" />
    <glyph glyph-name="ydieresis" unicode="&#xff;" horiz-adv-x="1118" 
d="M188 1329q0 64 44.5 107t109.5 43q66 0 111 -43t45 -107q0 -63 -45 -106t-111 -43q-65 0 -109.5 43t-44.5 106zM614 1329q0 64 44.5 107t109.5 43q66 0 110 -43t44 -107q0 -63 -44 -106t-110 -43q-65 0 -109.5 43t-44.5 106zM403 -6l-405 1059h307l256 -750l250 750h309
l-467 -1203q-28 -73 -49.5 -115.5t-54 -78.5t-75 -51t-103.5 -15h-281v244h160q55 0 80 18t47 72z" />
    <glyph glyph-name="Amacron" unicode="&#x100;" horiz-adv-x="1429" 
d="M1036 1608h-637v204h637v-204zM326 0h-318l524 1434h369l520 -1434h-329l-111 313h-545zM707 1106l-189 -545h379z" />
    <glyph glyph-name="amacron" unicode="&#x101;" horiz-adv-x="1148" 
d="M252 1432h637v-205h-637v205zM1104 244h33v-244h-148q-106 0 -151 45.5t-43 126.5q-116 -184 -344 -184q-175 0 -283.5 81t-108.5 228q0 168 124.5 259t359.5 91h209v51q0 72 -50 114t-139 42q-84 0 -138 -35t-63 -94h-278q15 154 147 247t340 93q223 0 344 -98t121 -285
v-373q0 -39 16 -52t52 -13zM752 434v21h-211q-91 0 -141 -36t-50 -102q0 -55 42 -87.5t114 -32.5q113 0 178.5 64.5t67.5 172.5z" />
    <glyph glyph-name="Abreve" unicode="&#x102;" horiz-adv-x="1429" 
d="M397 1835h207q0 -53 30.5 -84t82.5 -31q50 0 81 31.5t31 83.5h207q-6 -135 -95 -218t-230 -83q-136 0 -222 83t-92 218zM326 0h-318l524 1434h369l520 -1434h-329l-111 313h-545zM707 1106l-189 -545h379z" />
    <glyph glyph-name="abreve" unicode="&#x103;" horiz-adv-x="1148" 
d="M563 1153q-136 0 -221.5 82.5t-91.5 218.5h207q0 -53 30 -84t82 -31q50 0 81.5 31.5t31.5 83.5h207q-6 -135 -95.5 -218t-230.5 -83zM1104 244h33v-244h-148q-106 0 -151 45.5t-43 126.5q-116 -184 -344 -184q-175 0 -283.5 81t-108.5 228q0 168 124.5 259t359.5 91h209
v51q0 72 -50 114t-139 42q-84 0 -138 -35t-63 -94h-278q15 154 147 247t340 93q223 0 344 -98t121 -285v-373q0 -39 16 -52t52 -13zM752 434v21h-211q-91 0 -141 -36t-50 -102q0 -55 42 -87.5t114 -32.5q113 0 178.5 64.5t67.5 172.5z" />
    <glyph glyph-name="Aogonek" unicode="&#x104;" horiz-adv-x="1429" 
d="M1294 -217h131v-193h-184q-105 0 -174.5 54.5t-69.5 144.5q0 118 115 211h-20l-111 313h-545l-110 -313h-318l524 1434h369l520 -1434q-194 -87 -194 -164q0 -53 67 -53zM707 1106l-189 -545h379z" />
    <glyph glyph-name="aogonek" unicode="&#x105;" horiz-adv-x="1148" 
d="M1010 -217h131v-193h-185q-105 0 -174 54.5t-69 144.5q0 132 149 238q-70 43 -67 145q-116 -184 -344 -184q-175 0 -283.5 81t-108.5 228q0 168 124.5 259t359.5 91h209v51q0 72 -50 114t-139 42q-84 0 -138 -35t-63 -94h-278q15 154 147 247t340 93q223 0 344 -98
t121 -285v-373q0 -39 16 -52t52 -13h33v-244q-195 -87 -195 -164q0 -53 68 -53zM752 434v21h-211q-91 0 -141 -36t-50 -102q0 -55 42 -87.5t114 -32.5q113 0 178.5 64.5t67.5 172.5z" />
    <glyph glyph-name="Cacute" unicode="&#x106;" horiz-adv-x="1433" 
d="M866 1546h-211l150 289h330zM750 -12q-317 0 -500.5 198t-183.5 531q0 332 189 530.5t513 198.5q253 0 420.5 -144.5t195.5 -379.5h-311q-28 122 -112 193t-209 71q-172 0 -272.5 -129.5t-100.5 -339.5q0 -209 99 -339t270 -130q128 0 212.5 70.5t112.5 193.5h309
q-26 -235 -198.5 -379.5t-433.5 -144.5z" />
    <glyph glyph-name="cacute" unicode="&#x107;" horiz-adv-x="1165" 
d="M719 1165h-211l149 289h330zM596 -12q-250 0 -393.5 144.5t-143.5 393.5q0 245 148.5 392t398.5 147q212 0 343.5 -108t162.5 -298h-301q-19 80 -72.5 125t-136.5 45q-113 0 -180.5 -84t-67.5 -219q0 -136 67.5 -219.5t180.5 -83.5q84 0 139 46.5t70 127.5h303
q-31 -190 -167.5 -299.5t-350.5 -109.5z" />
    <glyph glyph-name="Ccircumflex" unicode="&#x108;" horiz-adv-x="1433" 
d="M881 1544l-125 121l-127 -121h-264l262 291h258l262 -291h-266zM750 -12q-317 0 -500.5 198t-183.5 531q0 332 189 530.5t513 198.5q253 0 420.5 -144.5t195.5 -379.5h-311q-28 122 -112 193t-209 71q-172 0 -272.5 -129.5t-100.5 -339.5q0 -209 99 -339t270 -130
q128 0 212.5 70.5t112.5 193.5h309q-26 -235 -198.5 -379.5t-433.5 -144.5z" />
    <glyph glyph-name="ccircumflex" unicode="&#x109;" horiz-adv-x="1165" 
d="M733 1163l-125 121l-127 -121h-264l262 291h258l262 -291h-266zM596 -12q-250 0 -393.5 144.5t-143.5 393.5q0 245 148.5 392t398.5 147q212 0 343.5 -108t162.5 -298h-301q-19 80 -72.5 125t-136.5 45q-113 0 -180.5 -84t-67.5 -219q0 -136 67.5 -219.5t180.5 -83.5
q84 0 139 46.5t70 127.5h303q-31 -190 -167.5 -299.5t-350.5 -109.5z" />
    <glyph glyph-name="Cdotaccent" unicode="&#x10a;" horiz-adv-x="1433" 
d="M756 1546q-71 0 -119.5 46.5t-48.5 115.5q0 70 48.5 117t119.5 47t119.5 -47t48.5 -117q0 -69 -48.5 -115.5t-119.5 -46.5zM750 -12q-317 0 -500.5 198t-183.5 531q0 332 189 530.5t513 198.5q253 0 420.5 -144.5t195.5 -379.5h-311q-28 122 -112 193t-209 71
q-172 0 -272.5 -129.5t-100.5 -339.5q0 -209 99 -339t270 -130q128 0 212.5 70.5t112.5 193.5h309q-26 -235 -198.5 -379.5t-433.5 -144.5z" />
    <glyph glyph-name="cdotaccent" unicode="&#x10b;" horiz-adv-x="1165" 
d="M608 1165q-71 0 -119.5 46.5t-48.5 115.5q0 70 48.5 117t119.5 47t119.5 -47t48.5 -117q0 -69 -48.5 -115.5t-119.5 -46.5zM596 -12q-250 0 -393.5 144.5t-143.5 393.5q0 245 148.5 392t398.5 147q212 0 343.5 -108t162.5 -298h-301q-19 80 -72.5 125t-136.5 45
q-113 0 -180.5 -84t-67.5 -219q0 -136 67.5 -219.5t180.5 -83.5q84 0 139 46.5t70 127.5h303q-31 -190 -167.5 -299.5t-350.5 -109.5z" />
    <glyph glyph-name="Ccaron" unicode="&#x10c;" horiz-adv-x="1433" 
d="M631 1835l125 -121l127 121h264l-262 -291h-258l-262 291h266zM750 -12q-317 0 -500.5 198t-183.5 531q0 332 189 530.5t513 198.5q253 0 420.5 -144.5t195.5 -379.5h-311q-28 122 -112 193t-209 71q-172 0 -272.5 -129.5t-100.5 -339.5q0 -209 99 -339t270 -130
q128 0 212.5 70.5t112.5 193.5h309q-26 -235 -198.5 -379.5t-433.5 -144.5z" />
    <glyph glyph-name="ccaron" unicode="&#x10d;" horiz-adv-x="1165" 
d="M483 1454l125 -121l127 121h264l-262 -291h-258l-262 291h266zM596 -12q-250 0 -393.5 144.5t-143.5 393.5q0 245 148.5 392t398.5 147q212 0 343.5 -108t162.5 -298h-301q-19 80 -72.5 125t-136.5 45q-113 0 -180.5 -84t-67.5 -219q0 -136 67.5 -219.5t180.5 -83.5
q84 0 139 46.5t70 127.5h303q-31 -190 -167.5 -299.5t-350.5 -109.5z" />
    <glyph glyph-name="Dcaron" unicode="&#x10e;" horiz-adv-x="1452" 
d="M551 1835l125 -121l127 121h264l-262 -291h-258l-262 291h266zM645 0h-522v1434h522q220 0 389.5 -90.5t262 -253t92.5 -371.5q0 -208 -92.5 -371.5t-262 -255.5t-389.5 -92zM430 1178v-922h215q202 0 315 127.5t113 335.5q0 209 -113 334t-315 125h-215z" />
    <glyph glyph-name="dcaron" unicode="&#x10f;" horiz-adv-x="1390" 
d="M864 922v512h289v-1434h-252l-29 145q-122 -157 -323 -157q-216 0 -353 146.5t-137 393.5q0 242 137.5 389.5t350.5 147.5q204 0 317 -143zM1223 1130l71 304h271l-140 -304h-202zM612 223q117 0 186.5 83t69.5 218q0 136 -69.5 220.5t-186.5 84.5q-118 0 -188 -83.5
t-70 -219.5t70 -219.5t188 -83.5z" />
    <glyph glyph-name="Dcroat" unicode="&#x110;" horiz-adv-x="1503" 
d="M174 1434h522q220 0 389.5 -90.5t262 -253t92.5 -371.5q0 -208 -92.5 -371.5t-262 -255.5t-389.5 -92h-522v621h-162v213h162v600zM481 256h215q202 0 315 127.5t113 335.5q0 209 -113 334t-315 125h-215v-344h230v-213h-230v-365z" />
    <glyph glyph-name="dcroat" unicode="&#x111;" horiz-adv-x="1269" 
d="M1153 1333h154v-211h-154v-1122h-252l-29 145q-122 -157 -323 -157q-216 0 -353 146.5t-137 393.5q0 242 137.5 389.5t350.5 147.5q204 0 317 -143v200h-280v211h280v101h289v-101zM612 223q117 0 186.5 83t69.5 218q0 136 -69.5 220.5t-186.5 84.5q-118 0 -188 -83.5
t-70 -219.5t70 -219.5t188 -83.5z" />
    <glyph glyph-name="Emacron" unicode="&#x112;" horiz-adv-x="1169" 
d="M938 1608h-637v204h637v-204zM123 0v1434h962v-265h-655v-321h533v-252h-533v-332h678v-264h-985z" />
    <glyph glyph-name="emacron" unicode="&#x113;" horiz-adv-x="1189" 
d="M918 1227h-637v205h637v-205zM621 -12q-261 0 -411.5 145t-150.5 391t148 393.5t393 147.5q237 0 383.5 -137.5t149.5 -368.5q0 -48 -9 -98h-764v-15q4 -112 71 -175.5t177 -63.5q89 0 146.5 38t76.5 111h285q-26 -160 -158.5 -264t-336.5 -104zM367 649h475
q-15 96 -78 148.5t-162 52.5q-95 0 -159 -54t-76 -147z" />
    <glyph glyph-name="Ebreve" unicode="&#x114;" horiz-adv-x="1169" 
d="M299 1835h207q0 -53 30 -84t82 -31q50 0 81.5 31.5t31.5 83.5h207q-6 -135 -95.5 -218t-230.5 -83q-136 0 -221.5 82.5t-91.5 218.5zM123 0v1434h962v-265h-655v-321h533v-252h-533v-332h678v-264h-985z" />
    <glyph glyph-name="ebreve" unicode="&#x115;" horiz-adv-x="1189" 
d="M279 1454h206q0 -53 30.5 -84t82.5 -31q50 0 81.5 31.5t31.5 83.5h207q-6 -135 -95.5 -218t-230.5 -83q-136 0 -221.5 82.5t-91.5 218.5zM621 -12q-261 0 -411.5 145t-150.5 391t148 393.5t393 147.5q237 0 383.5 -137.5t149.5 -368.5q0 -48 -9 -98h-764v-15
q4 -112 71 -175.5t177 -63.5q89 0 146.5 38t76.5 111h285q-26 -160 -158.5 -264t-336.5 -104zM367 649h475q-15 96 -78 148.5t-162 52.5q-95 0 -159 -54t-76 -147z" />
    <glyph glyph-name="Edotaccent" unicode="&#x116;" horiz-adv-x="1169" 
d="M618 1546q-71 0 -119 46.5t-48 115.5q0 70 48 117t119 47t119.5 -47t48.5 -117q0 -69 -48.5 -115.5t-119.5 -46.5zM123 0v1434h962v-265h-655v-321h533v-252h-533v-332h678v-264h-985z" />
    <glyph glyph-name="edotaccent" unicode="&#x117;" horiz-adv-x="1189" 
d="M598 1165q-71 0 -119.5 46.5t-48.5 115.5q0 70 48.5 117t119.5 47t119.5 -47t48.5 -117q0 -69 -48.5 -115.5t-119.5 -46.5zM621 -12q-261 0 -411.5 145t-150.5 391t148 393.5t393 147.5q237 0 383.5 -137.5t149.5 -368.5q0 -48 -9 -98h-764v-15q4 -112 71 -175.5
t177 -63.5q89 0 146.5 38t76.5 111h285q-26 -160 -158.5 -264t-336.5 -104zM367 649h475q-15 96 -78 148.5t-162 52.5q-95 0 -159 -54t-76 -147z" />
    <glyph glyph-name="Eogonek" unicode="&#x118;" horiz-adv-x="1169" 
d="M981 -217h131v-193h-184q-105 0 -174.5 54.5t-69.5 144.5q0 118 115 211h-676v1434h962v-265h-655v-321h533v-252h-533v-332h678v-264q-195 -87 -195 -164q0 -53 68 -53z" />
    <glyph glyph-name="eogonek" unicode="&#x119;" horiz-adv-x="1189" 
d="M915 -410h-184q-105 0 -174.5 54.5t-69.5 144.5q0 106 88 201q-2 0 -71 6q-209 32 -327 171.5t-118 356.5q0 246 148 393.5t393 147.5q237 0 383.5 -137.5t149.5 -368.5q0 -48 -9 -98h-764v-12q2 -106 68 -174t180 -68q89 0 146.5 38t76.5 111h285q-25 -167 -188 -282
q-102 -70 -156.5 -124t-54.5 -108q0 -32 20 -45.5t62 -13.5h116v-193zM367 649h475q-15 96 -78 148.5t-162 52.5q-95 0 -159 -54t-76 -147z" />
    <glyph glyph-name="Ecaron" unicode="&#x11a;" horiz-adv-x="1169" 
d="M494 1835l124 -121l127 121h265l-262 -291h-259l-262 291h267zM123 0v1434h962v-265h-655v-321h533v-252h-533v-332h678v-264h-985z" />
    <glyph glyph-name="ecaron" unicode="&#x11b;" horiz-adv-x="1189" 
d="M473 1454l125 -121l127 121h264l-262 -291h-258l-262 291h266zM621 -12q-261 0 -411.5 145t-150.5 391t148 393.5t393 147.5q237 0 383.5 -137.5t149.5 -368.5q0 -48 -9 -98h-764v-15q4 -112 71 -175.5t177 -63.5q89 0 146.5 38t76.5 111h285q-26 -160 -158.5 -264
t-336.5 -104zM367 649h475q-15 96 -78 148.5t-162 52.5q-95 0 -159 -54t-76 -147z" />
    <glyph glyph-name="Gcircumflex" unicode="&#x11c;" horiz-adv-x="1533" 
d="M901 1544l-125 121l-127 -121h-264l262 291h258l262 -291h-266zM748 -12q-308 0 -495 199.5t-187 529.5q0 332 191 530.5t519 198.5q257 0 428 -144t199 -378h-307q-28 121 -113.5 191.5t-214.5 70.5q-178 0 -283.5 -130t-105.5 -339q0 -211 104 -340t285 -129
q63 0 121 17t108 50.5t84.5 90t44.5 129.5v18h-356v244h641v-797h-215l-31 172q-62 -82 -168 -133t-249 -51z" />
    <glyph glyph-name="gcircumflex" unicode="&#x11d;" horiz-adv-x="1253" 
d="M733 1163l-125 121l-127 -121h-264l262 291h258l262 -291h-266zM874 907l25 146h254v-1022q0 -100 -32 -181t-98 -142.5t-176 -95.5t-257 -34q-224 0 -361 98.5t-147 278.5h291q43 -158 239 -158q124 0 191 61.5t67 182.5v111q-116 -146 -321 -146q-215 -2 -352.5 144
t-137.5 387q0 239 137 384.5t351 145.5q205 0 327 -160zM612 238q117 0 186.5 81t69.5 213q0 134 -69.5 218t-186.5 84t-187.5 -83t-70.5 -216t70 -215t188 -82z" />
    <glyph glyph-name="Gbreve" unicode="&#x11e;" horiz-adv-x="1533" 
d="M457 1835h207q0 -53 30 -84t82 -31q50 0 81.5 31.5t31.5 83.5h207q-6 -135 -95.5 -218t-230.5 -83q-136 0 -221.5 82.5t-91.5 218.5zM748 -12q-308 0 -495 199.5t-187 529.5q0 332 191 530.5t519 198.5q257 0 428 -144t199 -378h-307q-28 121 -113.5 191.5t-214.5 70.5
q-178 0 -283.5 -130t-105.5 -339q0 -211 104 -340t285 -129q63 0 121 17t108 50.5t84.5 90t44.5 129.5v18h-356v244h641v-797h-215l-31 172q-62 -82 -168 -133t-249 -51z" />
    <glyph glyph-name="gbreve" unicode="&#x11f;" horiz-adv-x="1253" 
d="M602 1153q-136 0 -221.5 82.5t-91.5 218.5h207q0 -53 30 -84t82 -31q50 0 81.5 31.5t31.5 83.5h207q-6 -135 -95.5 -218t-230.5 -83zM874 907l25 146h254v-1022q0 -100 -32 -181t-98 -142.5t-176 -95.5t-257 -34q-224 0 -361 98.5t-147 278.5h291q43 -158 239 -158
q124 0 191 61.5t67 182.5v111q-116 -146 -321 -146q-215 -2 -352.5 144t-137.5 387q0 239 137 384.5t351 145.5q205 0 327 -160zM612 238q117 0 186.5 81t69.5 213q0 134 -69.5 218t-186.5 84t-187.5 -83t-70.5 -216t70 -215t188 -82z" />
    <glyph glyph-name="Gdotaccent" unicode="&#x120;" horiz-adv-x="1533" 
d="M776 1546q-71 0 -119.5 46.5t-48.5 115.5q0 70 48.5 117t119.5 47t119.5 -47t48.5 -117q0 -69 -48.5 -115.5t-119.5 -46.5zM748 -12q-308 0 -495 199.5t-187 529.5q0 332 191 530.5t519 198.5q257 0 428 -144t199 -378h-307q-28 121 -113.5 191.5t-214.5 70.5
q-178 0 -283.5 -130t-105.5 -339q0 -211 104 -340t285 -129q63 0 121 17t108 50.5t84.5 90t44.5 129.5v18h-356v244h641v-797h-215l-31 172q-62 -82 -168 -133t-249 -51z" />
    <glyph glyph-name="gdotaccent" unicode="&#x121;" horiz-adv-x="1253" 
d="M608 1165q-71 0 -119.5 46.5t-48.5 115.5q0 70 48.5 117t119.5 47t119.5 -47t48.5 -117q0 -69 -48.5 -115.5t-119.5 -46.5zM874 907l25 146h254v-1022q0 -100 -32 -181t-98 -142.5t-176 -95.5t-257 -34q-224 0 -361 98.5t-147 278.5h291q43 -158 239 -158q124 0 191 61.5
t67 182.5v111q-116 -146 -321 -146q-215 -2 -352.5 144t-137.5 387q0 239 137 384.5t351 145.5q205 0 327 -160zM612 238q117 0 186.5 81t69.5 213q0 134 -69.5 218t-186.5 84t-187.5 -83t-70.5 -216t70 -215t188 -82z" />
    <glyph glyph-name="uni0122" unicode="&#x122;" horiz-adv-x="1533" 
d="M748 -12q-308 0 -495 199.5t-187 529.5q0 332 191 530.5t519 198.5q257 0 428 -144t199 -378h-307q-28 121 -113.5 191.5t-214.5 70.5q-178 0 -283.5 -130t-105.5 -339q0 -211 104 -340t285 -129q63 0 121 17t108 50.5t84.5 90t44.5 129.5v18h-356v244h641v-797h-215
l-31 172q-62 -82 -168 -133t-249 -51zM500 -399l106 301h283l-174 -301h-215z" />
    <glyph glyph-name="uni0123" unicode="&#x123;" horiz-adv-x="1253" 
d="M623 1454h219l-109 -299h-280zM874 907l25 146h254v-1022q0 -100 -32 -181t-98 -142.5t-176 -95.5t-257 -34q-224 0 -361 98.5t-147 278.5h291q43 -158 239 -158q124 0 191 61.5t67 182.5v111q-116 -146 -321 -146q-215 -2 -352.5 144t-137.5 387q0 239 137 384.5
t351 145.5q205 0 327 -160zM612 238q117 0 186.5 81t69.5 213q0 134 -69.5 218t-186.5 84t-187.5 -83t-70.5 -216t70 -215t188 -82z" />
    <glyph glyph-name="Hcircumflex" unicode="&#x124;" horiz-adv-x="1427" 
d="M840 1544l-125 121l-127 -121h-264l262 291h258l262 -291h-266zM123 0v1434h307v-576h569v576h308v-1434h-308v592h-569v-592h-307z" />
    <glyph glyph-name="hcircumflex" unicode="&#x125;" horiz-adv-x="1208" 
d="M369 1530l-125 121l-127 -121h-264l262 291h258l262 -291h-266zM700 1065q91 0 165.5 -26t134.5 -80.5t93 -150t33 -224.5v-584h-288v559q0 130 -53.5 199t-159.5 69q-111 0 -173.5 -75.5t-62.5 -210.5v-541h-289v1434h289v-510q117 141 311 141z" />
    <glyph glyph-name="Hbar" unicode="&#x126;" horiz-adv-x="1492" 
d="M1339 1223h152v-211h-152v-1012h-307v545h-571v-545h-307v1012h-152v211h152v211h307v-211h571v211h307v-211zM461 811h571v201h-571v-201z" />
    <glyph glyph-name="hbar" unicode="&#x127;" horiz-adv-x="1224" 
d="M719 1065q72 0 133 -15.5t115.5 -51.5t93 -90.5t60.5 -137t22 -186.5v-584h-289v559q0 268 -213 268q-110 0 -172.5 -75.5t-62.5 -210.5v-541h-289v1122h-154v211h154v101h289v-101h280v-211h-280v-200q116 143 313 143z" />
    <glyph glyph-name="Itilde" unicode="&#x128;" horiz-adv-x="550" 
d="M190 1655q-31 0 -49 -23t-18 -57h-172v41q0 95 55 158t141 63q40 0 72.5 -13.5t50 -29.5t41.5 -29.5t49 -13.5q30 0 48 22.5t18 57.5h172v-43q0 -94 -56.5 -157.5t-140.5 -63.5q-41 0 -74.5 13.5t-51 30.5t-40.5 30.5t-45 13.5zM123 0v1434h307v-1434h-307z" />
    <glyph glyph-name="itilde" unicode="&#x129;" horiz-adv-x="489" 
d="M162 1274q-31 0 -49.5 -23t-18.5 -57h-172v41q0 94 55.5 157.5t141.5 63.5q40 0 72.5 -13.5t50 -29.5t41.5 -29.5t49 -13.5q30 0 47.5 22.5t17.5 57.5h172v-43q0 -94 -56 -157.5t-140 -63.5q-41 0 -74.5 14t-51 30t-40.5 30t-45 14zM100 0v1053h291v-1053h-291z" />
    <glyph glyph-name="Imacron" unicode="&#x12a;" horiz-adv-x="550" 
d="M594 1608h-637v204h637v-204zM123 0v1434h307v-1434h-307z" />
    <glyph glyph-name="imacron" unicode="&#x12b;" horiz-adv-x="489" 
d="M565 1227h-637v205h637v-205zM100 0v1053h291v-1053h-291z" />
    <glyph glyph-name="Ibreve" unicode="&#x12c;" horiz-adv-x="550" 
d="M-45 1835h207q0 -53 30 -84t82 -31q50 0 81.5 31.5t31.5 83.5h207q-6 -135 -95.5 -218t-230.5 -83q-136 0 -221.5 82.5t-91.5 218.5zM123 0v1434h307v-1434h-307z" />
    <glyph glyph-name="ibreve" unicode="&#x12d;" horiz-adv-x="489" 
d="M-74 1454h207q0 -53 30.5 -84t82.5 -31q50 0 81 31.5t31 83.5h207q-6 -135 -95 -218t-230 -83q-136 0 -222 83t-92 218zM100 0v1053h291v-1053h-291z" />
    <glyph glyph-name="Iogonek" unicode="&#x12e;" horiz-adv-x="550" 
d="M303 -217h131v-193h-184q-105 0 -174.5 54.5t-69.5 144.5q0 115 117 213v1432h307v-1434q-194 -87 -194 -164q0 -53 67 -53z" />
    <glyph glyph-name="iogonek" unicode="&#x12f;" horiz-adv-x="489" 
d="M246 1165q-71 0 -119.5 46.5t-48.5 115.5q0 70 48.5 117t119.5 47t119.5 -47t48.5 -117q0 -69 -48.5 -115.5t-119.5 -46.5zM197 -164q0 -53 67 -53h131v-193h-184q-105 0 -174.5 54.5t-69.5 144.5q0 124 133 225v1039h291v-1053q-194 -87 -194 -164z" />
    <glyph glyph-name="Idotaccent" unicode="&#x130;" horiz-adv-x="550" 
d="M274 1546q-71 0 -119.5 46.5t-48.5 115.5q0 70 48.5 117t119.5 47t119.5 -47t48.5 -117q0 -69 -48.5 -115.5t-119.5 -46.5zM123 0v1434h307v-1434h-307z" />
    <glyph glyph-name="dotlessi" unicode="&#x131;" horiz-adv-x="489" 
d="M100 0v1053h291v-1053h-291z" />
    <glyph glyph-name="IJ" unicode="&#x132;" horiz-adv-x="1339" 
d="M113 559h309q0 -147 61 -229t185 -82q128 0 189 76.5t61 230.5v879h309v-871q0 -283 -143.5 -429t-415.5 -146t-415 144t-140 427zM117 739v695h307v-695h-307z" />
    <glyph glyph-name="ij" unicode="&#x133;" horiz-adv-x="989" 
d="M246 1165q-71 0 -119.5 46.5t-48.5 115.5q0 70 48.5 117t119.5 47t119.5 -47t48.5 -117q0 -69 -48.5 -115.5t-119.5 -46.5zM745 1165q-71 0 -118 46t-47 116t47 117t118 47t119.5 -47t48.5 -117t-48.5 -116t-119.5 -46zM100 0v1053h291v-1053h-291zM395 -410v244h101
q54 0 79 28t25 89v1102h289v-1143q0 -149 -77.5 -234.5t-225.5 -85.5h-191z" />
    <glyph glyph-name="Jcircumflex" unicode="&#x134;" horiz-adv-x="813" 
d="M662 1544l-125 121l-127 -121h-265l263 291h258l262 -291h-266zM383 440v994h307v-1053q0 -181 -100 -281t-281 -100h-264v264h170q89 0 128.5 42.5t39.5 133.5z" />
    <glyph glyph-name="jcircumflex" unicode="&#x135;" horiz-adv-x="499" 
d="M381 1163l-125 121l-127 -121h-264l262 291h258l262 -291h-266zM-94 -410v244h100q54 0 79.5 28t25.5 89v1102h288v-1143q0 -149 -77.5 -234.5t-225.5 -85.5h-190z" />
    <glyph glyph-name="uni0136" unicode="&#x136;" horiz-adv-x="1398" 
d="M123 0v1434h307v-650l574 650h372l-530 -598l565 -836h-369l-413 610l-199 -225v-385h-307zM440 -399l107 301h282l-174 -301h-215z" />
    <glyph glyph-name="uni0137" unicode="&#x137;" horiz-adv-x="1138" 
d="M100 0v1434h289v-828l412 447h325l-378 -414l399 -639h-334l-266 426l-158 -170v-256h-289zM350 -399l107 301h282l-174 -301h-215z" />
    <glyph glyph-name="kgreenlandic" unicode="&#x138;" horiz-adv-x="1138" 
d="M100 0v1053h289v-447l412 447h325l-378 -414l399 -639h-334l-266 426l-158 -170v-256h-289z" />
    <glyph glyph-name="Lacute" unicode="&#x139;" horiz-adv-x="1040" 
d="M385 1546h-211l150 289h329zM999 0h-876v1434h307v-1170h569v-264z" />
    <glyph glyph-name="lacute" unicode="&#x13a;" horiz-adv-x="489" 
d="M354 1532h-211l150 289h330zM100 0v1434h289v-1434h-289z" />
    <glyph glyph-name="uni013B" unicode="&#x13b;" horiz-adv-x="1040" 
d="M999 0h-876v1434h307v-1170h569v-264zM307 -399l107 301h282l-174 -301h-215z" />
    <glyph glyph-name="uni013C" unicode="&#x13c;" horiz-adv-x="489" 
d="M100 0v1434h289v-1434h-289zM-12 -399l106 301h283l-174 -301h-215z" />
    <glyph glyph-name="Lcaron" unicode="&#x13d;" horiz-adv-x="1040" 
d="M999 0h-876v1434h307v-1170h569v-264zM512 1130l72 304h270l-139 -304h-203z" />
    <glyph glyph-name="lcaron" unicode="&#x13e;" horiz-adv-x="624" 
d="M100 0v1434h289v-1434h-289zM459 1130l71 304h271l-139 -304h-203z" />
    <glyph glyph-name="Ldot" unicode="&#x13f;" horiz-adv-x="1042" 
d="M999 0h-876v1434h307v-1170h569v-264zM797 618q-71 0 -119.5 47t-48.5 117t48.5 116t119.5 46t119.5 -46t48.5 -116t-48.5 -117t-119.5 -47z" />
    <glyph glyph-name="ldot" unicode="&#x140;" horiz-adv-x="776" 
d="M100 0v1434h289v-1434h-289zM635 516q-71 0 -118.5 47t-47.5 117t47.5 117t118.5 47t119.5 -47t48.5 -117t-48.5 -117t-119.5 -47z" />
    <glyph glyph-name="Lslash" unicode="&#x141;" horiz-adv-x="1077" 
d="M465 705v-441h569v-264h-876v541l-146 -78v237l146 78v656h307v-492l287 152v-236z" />
    <glyph glyph-name="lslash" unicode="&#x142;" horiz-adv-x="612" 
d="M451 954l143 68v-250l-143 -67v-705h-289v571l-144 -67v250l144 67v613h289v-480z" />
    <glyph glyph-name="Nacute" unicode="&#x143;" horiz-adv-x="1433" 
d="M805 1546h-211l149 289h330zM424 0h-301v1434h278l609 -904v904h303v-1434h-281l-608 903v-903z" />
    <glyph glyph-name="nacute" unicode="&#x144;" horiz-adv-x="1208" 
d="M709 1454h329l-268 -289h-211zM705 1065q71 0 131.5 -15t114.5 -51t92.5 -90t60.5 -137t22 -188v-584h-288v555q0 272 -213 272q-112 0 -174 -75.5t-62 -212.5v-539h-289v1053h252l27 -131q119 143 326 143z" />
    <glyph glyph-name="uni0145" unicode="&#x145;" horiz-adv-x="1433" 
d="M424 0h-301v1434h278l609 -904v904h303v-1434h-281l-608 903v-903zM455 -399l106 301h283l-174 -301h-215z" />
    <glyph glyph-name="uni0146" unicode="&#x146;" horiz-adv-x="1208" 
d="M705 1065q71 0 131.5 -15t114.5 -51t92.5 -90t60.5 -137t22 -188v-584h-288v555q0 272 -213 272q-112 0 -174 -75.5t-62 -212.5v-539h-289v1053h252l27 -131q119 143 326 143zM575 -399h-215l107 301h283z" />
    <glyph glyph-name="Ncaron" unicode="&#x147;" horiz-adv-x="1433" 
d="M569 1835l125 -121l127 121h264l-262 -291h-258l-262 291h266zM424 0h-301v1434h278l609 -904v904h303v-1434h-281l-608 903v-903z" />
    <glyph glyph-name="ncaron" unicode="&#x148;" horiz-adv-x="1208" 
d="M1051 1454l-263 -291h-258l-262 291h267l124 -121l127 121h265zM705 1065q71 0 131.5 -15t114.5 -51t92.5 -90t60.5 -137t22 -188v-584h-288v555q0 272 -213 272q-112 0 -174 -75.5t-62 -212.5v-539h-289v1053h252l27 -131q119 143 326 143z" />
    <glyph glyph-name="napostrophe" unicode="&#x149;" horiz-adv-x="1650" 
d="M233 1446q96 0 156 -74.5t60 -193.5q0 -170 -102.5 -260.5t-280.5 -92.5v150q94 0 144 40t50 99q0 19 -2 29q-34 -17 -65 -17q-60 0 -100 40.5t-40 113.5q0 69 52.5 117.5t127.5 48.5zM1147 1065q90 0 163.5 -25.5t133 -79.5t92.5 -149.5t33 -226.5v-584h-289v555
q0 272 -213 272q-111 0 -173.5 -76t-62.5 -212v-539h-288v1053h254l24 -131q119 143 326 143z" />
    <glyph glyph-name="Eng" unicode="&#x14a;" horiz-adv-x="1433" 
d="M1010 530v904h303v-1506q0 -162 -81.5 -250t-238.5 -88h-180v250h100q53 0 79 28t26 89v63l-594 883v-903h-301v1434h278z" />
    <glyph glyph-name="eng" unicode="&#x14b;" horiz-adv-x="1208" 
d="M705 1065q71 0 131.5 -15t114.5 -51t92.5 -90t60.5 -137t22 -188v-662q0 -154 -81.5 -243t-235.5 -89h-182v244h102q56 0 82.5 29t26.5 92v600q0 272 -213 272q-112 0 -174 -75.5t-62 -212.5v-539h-289v1053h252l27 -133q114 145 326 145z" />
    <glyph glyph-name="Omacron" unicode="&#x14c;" horiz-adv-x="1550" 
d="M1096 1608h-637v204h637v-204zM1487 717q0 -207 -89 -373t-252 -261t-370 -95t-370 95t-251.5 261t-88.5 373t88.5 373t251.5 261t370 95t370 -95t252 -261t89 -373zM379 717q0 -205 109 -337t288 -132q178 0 286.5 132t108.5 337t-108.5 337t-286.5 132
q-179 0 -288 -132t-109 -337z" />
    <glyph glyph-name="omacron" unicode="&#x14d;" 
d="M934 1227h-637v205h637v-205zM614 -12q-252 0 -403.5 147.5t-151.5 390.5t151.5 391t403.5 148t403.5 -148t151.5 -391q0 -244 -151.5 -391t-403.5 -147zM614 223q120 0 191.5 84t71.5 219t-71.5 219t-191.5 84t-190 -84t-70 -219t70 -219t190 -84z" />
    <glyph glyph-name="Obreve" unicode="&#x14e;" horiz-adv-x="1550" 
d="M457 1835h207q0 -53 30 -84t82 -31q50 0 81.5 31.5t31.5 83.5h207q-6 -135 -95.5 -218t-230.5 -83q-136 0 -221.5 82.5t-91.5 218.5zM1487 717q0 -207 -89 -373t-252 -261t-370 -95t-370 95t-251.5 261t-88.5 373t88.5 373t251.5 261t370 95t370 -95t252 -261t89 -373z
M379 717q0 -205 109 -337t288 -132q178 0 286.5 132t108.5 337t-108.5 337t-286.5 132q-179 0 -288 -132t-109 -337z" />
    <glyph glyph-name="obreve" unicode="&#x14f;" 
d="M295 1454h207q0 -53 30 -84t82 -31q50 0 81.5 31.5t31.5 83.5h207q-6 -135 -95.5 -218t-230.5 -83q-136 0 -221.5 82.5t-91.5 218.5zM614 -12q-252 0 -403.5 147.5t-151.5 390.5t151.5 391t403.5 148t403.5 -148t151.5 -391q0 -244 -151.5 -391t-403.5 -147zM614 223
q120 0 191.5 84t71.5 219t-71.5 219t-191.5 84t-190 -84t-70 -219t70 -219t190 -84z" />
    <glyph glyph-name="Ohungarumlaut" unicode="&#x150;" horiz-adv-x="1550" 
d="M645 1540h-196l149 295h315zM1055 1540h-199l152 295h313zM1487 717q0 -207 -89 -373t-252 -261t-370 -95t-370 95t-251.5 261t-88.5 373t88.5 373t251.5 261t370 95t370 -95t252 -261t89 -373zM379 717q0 -205 109 -337t288 -132q178 0 286.5 132t108.5 337t-108.5 337
t-286.5 132q-179 0 -288 -132t-109 -337z" />
    <glyph glyph-name="ohungarumlaut" unicode="&#x151;" 
d="M483 1159h-196l149 295h316zM893 1159h-199l152 295h313zM614 -12q-252 0 -403.5 147.5t-151.5 390.5t151.5 391t403.5 148t403.5 -148t151.5 -391q0 -244 -151.5 -391t-403.5 -147zM614 223q120 0 191.5 84t71.5 219t-71.5 219t-191.5 84t-190 -84t-70 -219t70 -219
t190 -84z" />
    <glyph glyph-name="OE" unicode="&#x152;" horiz-adv-x="2283" 
d="M1542 596v-332h680v-264h-987v154q-156 -166 -432 -166q-215 0 -384 95t-261 261t-92 373t92 373t261 261t384 95q276 0 432 -166v154h963v-265h-656v-321h533v-252h-533zM807 248q193 0 310.5 132t117.5 337t-117.5 337t-310.5 132q-194 0 -311 -131.5t-117 -337.5
t117 -337.5t311 -131.5z" />
    <glyph glyph-name="oe" unicode="&#x153;" horiz-adv-x="1978" 
d="M1911 461h-764v-8q11 -116 74.5 -181t175.5 -65q87 0 144.5 38t76.5 111h287q-26 -160 -156.5 -264t-331.5 -104q-267 0 -413 162q-146 -162 -392 -162q-252 0 -402.5 146.5t-150.5 391.5t150.5 392t402.5 147t398 -162q134 162 366 162q244 0 393 -137.5t150 -368.5
q0 -54 -8 -98zM1389 850q-94 0 -159 -54.5t-77 -146.5h475q-13 96 -76.5 148.5t-162.5 52.5zM612 223q120 0 191 83t71 218q0 137 -71 221t-191 84t-189 -83.5t-69 -219.5q0 -137 69 -220t189 -83z" />
    <glyph glyph-name="Racute" unicode="&#x154;" horiz-adv-x="1306" 
d="M713 1546h-211l149 289h330zM123 0v1434h584q237 0 381.5 -130.5t144.5 -347.5q0 -136 -66 -242t-180 -161l283 -553h-340l-242 481h-258v-481h-307zM682 1178h-252v-441h252q109 0 173.5 59.5t64.5 159.5q0 101 -64.5 161.5t-173.5 60.5z" />
    <glyph glyph-name="racute" unicode="&#x155;" horiz-adv-x="770" 
d="M481 1454h330l-268 -289h-211zM362 1053l27 -158q47 77 117 117.5t186 40.5h49v-262h-114q-123 0 -180.5 -73.5t-57.5 -201.5v-516h-289v1053h262z" />
    <glyph glyph-name="uni0156" unicode="&#x156;" horiz-adv-x="1306" 
d="M123 0v1434h584q237 0 381.5 -130.5t144.5 -347.5q0 -136 -66 -242t-180 -161l283 -553h-340l-242 481h-258v-481h-307zM682 1178h-252v-441h252q109 0 173.5 59.5t64.5 159.5q0 101 -64.5 161.5t-173.5 60.5zM397 -399l107 301h282l-174 -301h-215z" />
    <glyph glyph-name="uni0157" unicode="&#x157;" horiz-adv-x="770" 
d="M692 1053h49v-262h-114q-123 0 -180.5 -73.5t-57.5 -201.5v-516h-289v1053h262l27 -158q47 77 117 117.5t186 40.5zM205 -399h-215l106 301h283z" />
    <glyph glyph-name="Rcaron" unicode="&#x158;" horiz-adv-x="1306" 
d="M477 1835l125 -121l127 121h264l-262 -291h-258l-262 291h266zM123 0v1434h584q237 0 381.5 -130.5t144.5 -347.5q0 -136 -66 -242t-180 -161l283 -553h-340l-242 481h-258v-481h-307zM682 1178h-252v-441h252q109 0 173.5 59.5t64.5 159.5q0 101 -64.5 161.5
t-173.5 60.5z" />
    <glyph glyph-name="rcaron" unicode="&#x159;" horiz-adv-x="770" 
d="M823 1454l-262 -291h-258l-262 291h266l125 -121l127 121h264zM362 1053l27 -158q47 77 117 117.5t186 40.5h49v-262h-114q-123 0 -180.5 -73.5t-57.5 -201.5v-516h-289v1053h262z" />
    <glyph glyph-name="Sacute" unicode="&#x15a;" horiz-adv-x="1280" 
d="M748 1546h-211l149 289h330zM66 471l301 -4q8 -106 87.5 -171t209.5 -65q109 0 177 46t68 129q0 23 -4.5 41t-18 33.5t-26 27t-40 22.5t-48.5 18.5t-63 17t-71 15.5t-85 17q-81 15 -141 32.5t-122.5 49t-102 74t-64.5 108t-25 150.5q0 192 147 313t388 121
q253 0 403.5 -122.5t153.5 -328.5h-301q-11 93 -78.5 149t-177.5 56q-102 0 -163.5 -42.5t-61.5 -123.5q0 -25 8 -45t19 -35t36.5 -28.5t48 -22.5t66 -19.5t77 -17t95.5 -18.5q83 -15 143.5 -32t124.5 -48t103.5 -72.5t65 -106.5t24.5 -149q-2 -202 -155.5 -327t-404.5 -125
q-272 0 -431.5 131.5t-161.5 351.5z" />
    <glyph glyph-name="sacute" unicode="&#x15b;" horiz-adv-x="1085" 
d="M637 1165h-211l149 289h330zM51 350h275q8 -71 68 -113t163 -42q92 0 143.5 28.5t51.5 83.5q0 56 -50 78q-36 16 -172 34h-1l-1 1h-1h-1h-1h-1h-1h-1l-1 1h-1h-1h-1h-1h-1h-1l-1 1h-1h-1h-2q-81 10 -140.5 22t-118.5 34t-95.5 53.5t-59 80t-22.5 111.5q0 156 124.5 251
t327.5 93q215 0 348.5 -90.5t143.5 -249.5h-277q-6 63 -61 99t-143 36q-86 0 -136.5 -28.5t-50.5 -79.5q0 -19 6.5 -33.5t22 -25t32 -17.5t47.5 -12.5t56 -9t69 -8.5q6 -1 9 -1q81 -8 140 -19.5t119 -34.5t98 -56t61.5 -85.5t23.5 -121.5q0 -156 -132.5 -249t-346.5 -93
q-221 0 -358 97t-146 265z" />
    <glyph glyph-name="Scircumflex" unicode="&#x15c;" horiz-adv-x="1280" 
d="M762 1544l-125 121l-127 -121h-264l262 291h258l262 -291h-266zM66 471l301 -4q8 -106 87.5 -171t209.5 -65q109 0 177 46t68 129q0 23 -4.5 41t-18 33.5t-26 27t-40 22.5t-48.5 18.5t-63 17t-71 15.5t-85 17q-81 15 -141 32.5t-122.5 49t-102 74t-64.5 108t-25 150.5
q0 192 147 313t388 121q253 0 403.5 -122.5t153.5 -328.5h-301q-11 93 -78.5 149t-177.5 56q-102 0 -163.5 -42.5t-61.5 -123.5q0 -25 8 -45t19 -35t36.5 -28.5t48 -22.5t66 -19.5t77 -17t95.5 -18.5q83 -15 143.5 -32t124.5 -48t103.5 -72.5t65 -106.5t24.5 -149
q-2 -202 -155.5 -327t-404.5 -125q-272 0 -431.5 131.5t-161.5 351.5z" />
    <glyph glyph-name="scircumflex" unicode="&#x15d;" horiz-adv-x="1085" 
d="M651 1163l-125 121l-127 -121h-264l262 291h258l263 -291h-267zM51 350h275q8 -71 68 -113t163 -42q92 0 143.5 28.5t51.5 83.5q0 56 -50 78q-36 16 -172 34h-1l-1 1h-1h-1h-1h-1h-1h-1l-1 1h-1h-1h-1h-1h-1h-1l-1 1h-1h-1h-2q-81 10 -140.5 22t-118.5 34t-95.5 53.5
t-59 80t-22.5 111.5q0 156 124.5 251t327.5 93q215 0 348.5 -90.5t143.5 -249.5h-277q-6 63 -61 99t-143 36q-86 0 -136.5 -28.5t-50.5 -79.5q0 -19 6.5 -33.5t22 -25t32 -17.5t47.5 -12.5t56 -9t69 -8.5q6 -1 9 -1q81 -8 140 -19.5t119 -34.5t98 -56t61.5 -85.5
t23.5 -121.5q0 -156 -132.5 -249t-346.5 -93q-221 0 -358 97t-146 265z" />
    <glyph glyph-name="Scedilla" unicode="&#x15e;" horiz-adv-x="1280" 
d="M758 848q83 -15 143.5 -32t124.5 -48t103.5 -72.5t65 -106.5t24.5 -149q-1 -189 -136 -311t-360 -139l-14 -51h22q90 0 143.5 -42t53.5 -116q0 -88 -60.5 -139.5t-162.5 -51.5h-244v142h190q58 0 58 51q0 45 -58 45h-125l41 164q-233 23 -366 151t-135 328l301 -4
q8 -106 87.5 -171t209.5 -65q109 0 177 46t68 129q0 23 -4.5 41t-18 33.5t-26 27t-40 22.5t-48.5 18.5t-63 17t-71 15.5t-85 17q-81 15 -141 32.5t-122.5 49t-102 74t-64.5 108t-25 150.5q0 192 147 313t388 121q253 0 403.5 -122.5t153.5 -328.5h-301q-11 93 -78.5 149
t-177.5 56q-102 0 -163.5 -42.5t-61.5 -123.5q0 -25 8 -45t19 -35t36.5 -28.5t48 -22.5t66 -19.5t77 -17t95.5 -18.5z" />
    <glyph glyph-name="scedilla" unicode="&#x15f;" horiz-adv-x="1085" 
d="M1034 330q0 -142 -111.5 -233.5t-297.5 -106.5l-15 -53h23q90 0 143 -42t53 -116q0 -88 -60.5 -139.5t-162.5 -51.5h-244v142h191q57 0 57 51q0 45 -57 45h-125l41 166q-187 19 -299 113t-119 245h275q8 -71 68 -113t163 -42q92 0 143.5 28.5t51.5 83.5q0 56 -50 78
q-36 16 -172 34h-1l-1 1h-1h-1h-1h-1h-1h-1l-1 1h-1h-1h-1h-1h-1h-1l-1 1h-1h-1h-2q-81 10 -140.5 22t-118.5 34t-95.5 53.5t-59 80t-22.5 111.5q0 156 124.5 251t327.5 93q215 0 348.5 -90.5t143.5 -249.5h-277q-6 63 -61 99t-143 36q-86 0 -136.5 -28.5t-50.5 -79.5
q0 -19 6.5 -33.5t22 -25t32 -17.5t47.5 -12.5t56 -9t69 -8.5q6 -1 9 -1q81 -8 140 -19.5t119 -34.5t98 -56t61.5 -85.5t23.5 -121.5z" />
    <glyph glyph-name="Scaron" unicode="&#x160;" horiz-adv-x="1280" 
d="M512 1835l125 -121l127 121h264l-262 -291h-258l-262 291h266zM66 471l301 -4q8 -106 87.5 -171t209.5 -65q109 0 177 46t68 129q0 23 -4.5 41t-18 33.5t-26 27t-40 22.5t-48.5 18.5t-63 17t-71 15.5t-85 17q-81 15 -141 32.5t-122.5 49t-102 74t-64.5 108t-25 150.5
q0 192 147 313t388 121q253 0 403.5 -122.5t153.5 -328.5h-301q-11 93 -78.5 149t-177.5 56q-102 0 -163.5 -42.5t-61.5 -123.5q0 -25 8 -45t19 -35t36.5 -28.5t48 -22.5t66 -19.5t77 -17t95.5 -18.5q83 -15 143.5 -32t124.5 -48t103.5 -72.5t65 -106.5t24.5 -149
q-2 -202 -155.5 -327t-404.5 -125q-272 0 -431.5 131.5t-161.5 351.5z" />
    <glyph glyph-name="scaron" unicode="&#x161;" horiz-adv-x="1085" 
d="M401 1454l125 -121l127 121h265l-263 -291h-258l-262 291h266zM51 350h275q8 -71 68 -113t163 -42q92 0 143.5 28.5t51.5 83.5q0 56 -50 78q-36 16 -172 34h-1l-1 1h-1h-1h-1h-1h-1h-1l-1 1h-1h-1h-1h-1h-1h-1l-1 1h-1h-1h-2q-81 10 -140.5 22t-118.5 34t-95.5 53.5
t-59 80t-22.5 111.5q0 156 124.5 251t327.5 93q215 0 348.5 -90.5t143.5 -249.5h-277q-6 63 -61 99t-143 36q-86 0 -136.5 -28.5t-50.5 -79.5q0 -19 6.5 -33.5t22 -25t32 -17.5t47.5 -12.5t56 -9t69 -8.5q6 -1 9 -1q81 -8 140 -19.5t119 -34.5t98 -56t61.5 -85.5
t23.5 -121.5q0 -156 -132.5 -249t-346.5 -93q-221 0 -358 97t-146 265z" />
    <glyph glyph-name="uni0162" unicode="&#x162;" horiz-adv-x="1218" 
d="M762 1169v-1169h-80l-16 -61h22q90 0 143.5 -42t53.5 -116q0 -88 -60.5 -139.5t-162.5 -51.5h-244v142h190q58 0 58 51q0 45 -58 45h-125l43 172h-71v1169h-414v265h1137v-265h-416z" />
    <glyph glyph-name="uni0163" unicode="&#x163;" horiz-adv-x="745" 
d="M510 -61h22q90 0 143.5 -42t53.5 -116q0 -88 -60.5 -139.5t-162.5 -51.5h-244v142h191q57 0 57 51q0 45 -57 45h-125l45 182q-197 47 -197 291v508h-174v244h174v295h289v-295h242v-244h-242v-461q0 -56 23.5 -80t80.5 -24h144v-244h-187z" />
    <glyph glyph-name="Tcaron" unicode="&#x164;" horiz-adv-x="1218" 
d="M492 1835l124 -121l127 121h265l-263 -291h-258l-262 291h267zM41 1169v265h1137v-265h-416v-1169h-307v1169h-414z" />
    <glyph glyph-name="tcaron" unicode="&#x165;" horiz-adv-x="745" 
d="M539 1141l71 303h271l-140 -303h-202zM176 301v508h-174v244h174v295h289v-295h242v-244h-242v-461q0 -56 23.5 -80t80.5 -24h144v-244h-236q-301 0 -301 301z" />
    <glyph glyph-name="Tbar" unicode="&#x166;" horiz-adv-x="1224" 
d="M1178 1434v-265h-416v-370h229v-213h-229v-586h-307v586h-219v213h219v370h-414v265h1137z" />
    <glyph glyph-name="tbar" unicode="&#x167;" horiz-adv-x="770" 
d="M575 244h144v-244h-236q-301 0 -301 301v150h-174v211h174v147h-174v244h174v295h289v-295h240v-244h-240v-147h240v-211h-240v-103q0 -56 23.5 -80t80.5 -24z" />
    <glyph glyph-name="Utilde" unicode="&#x168;" horiz-adv-x="1402" 
d="M618 1655q-31 0 -49 -23t-18 -57h-172v41q0 95 55 158t141 63q40 0 72.5 -13.5t50 -29.5t41.5 -29.5t49 -13.5q30 0 48 22.5t18 57.5h172v-43q0 -94 -56.5 -157.5t-140.5 -63.5q-41 0 -74.5 13.5t-51 30.5t-40.5 30.5t-45 13.5zM113 618v816h307v-832q0 -174 67.5 -262
t212.5 -88q146 0 214.5 88t68.5 262v832h307v-816q0 -307 -150.5 -468.5t-439.5 -161.5q-288 0 -437.5 161.5t-149.5 468.5z" />
    <glyph glyph-name="utilde" unicode="&#x169;" horiz-adv-x="1191" 
d="M504 1274q-31 0 -49.5 -23t-18.5 -57h-172v41q0 94 55.5 157.5t141.5 63.5q40 0 72.5 -13.5t50 -29.5t41.5 -29.5t49 -13.5q30 0 47.5 22.5t17.5 57.5h172v-43q0 -94 -56 -157.5t-140 -63.5q-41 0 -74.5 14t-51 30t-40.5 30t-45 14zM803 526v527h289v-1053h-256l-27 127
q-115 -139 -309 -139q-68 0 -127 14t-113.5 48.5t-93 88t-61.5 137.5t-23 193v584h289v-545q0 -143 49 -212t155 -69q108 0 168 77t60 222z" />
    <glyph glyph-name="Umacron" unicode="&#x16a;" horiz-adv-x="1402" 
d="M1022 1608h-637v204h637v-204zM113 618v816h307v-832q0 -174 67.5 -262t212.5 -88q146 0 214.5 88t68.5 262v832h307v-816q0 -307 -150.5 -468.5t-439.5 -161.5q-288 0 -437.5 161.5t-149.5 468.5z" />
    <glyph glyph-name="umacron" unicode="&#x16b;" horiz-adv-x="1191" 
d="M270 1432h637v-205h-637v205zM803 526v527h289v-1053h-256l-27 127q-115 -139 -309 -139q-68 0 -127 14t-113.5 48.5t-93 88t-61.5 137.5t-23 193v584h289v-545q0 -143 49 -212t155 -69q108 0 168 77t60 222z" />
    <glyph glyph-name="Ubreve" unicode="&#x16c;" horiz-adv-x="1402" 
d="M383 1835h207q0 -53 30 -84t82 -31q50 0 81.5 31.5t31.5 83.5h207q-6 -135 -95.5 -218t-230.5 -83q-136 0 -221.5 82.5t-91.5 218.5zM113 618v816h307v-832q0 -174 67.5 -262t212.5 -88q146 0 214.5 88t68.5 262v832h307v-816q0 -307 -150.5 -468.5t-439.5 -161.5
q-288 0 -437.5 161.5t-149.5 468.5z" />
    <glyph glyph-name="ubreve" unicode="&#x16d;" horiz-adv-x="1191" 
d="M582 1153q-136 0 -222 83t-92 218h207q0 -53 30.5 -84t82.5 -31q50 0 81 31.5t31 83.5h207q-6 -135 -95 -218t-230 -83zM803 526v527h289v-1053h-256l-27 127q-115 -139 -309 -139q-68 0 -127 14t-113.5 48.5t-93 88t-61.5 137.5t-23 193v584h289v-545q0 -143 49 -212
t155 -69q108 0 168 77t60 222z" />
    <glyph glyph-name="Uring" unicode="&#x16e;" horiz-adv-x="1402" 
d="M434 1624q0 103 78 175.5t190 72.5q110 0 188.5 -72.5t78.5 -175.5q0 -104 -78 -176t-189 -72q-113 0 -190.5 72t-77.5 176zM821 1624q0 51 -34.5 85t-84.5 34q-51 0 -85.5 -34t-34.5 -85q0 -52 34.5 -86.5t85.5 -34.5q50 0 84.5 34.5t34.5 86.5zM113 618v816h307v-832
q0 -174 67.5 -262t212.5 -88q146 0 214.5 88t68.5 262v832h307v-816q0 -307 -150.5 -468.5t-439.5 -161.5q-288 0 -437.5 161.5t-149.5 468.5z" />
    <glyph glyph-name="uring" unicode="&#x16f;" horiz-adv-x="1191" 
d="M588 1133q-112 0 -189 71.5t-77 175.5q0 103 77 175.5t189 72.5t189 -72.5t77 -175.5q0 -104 -77 -175.5t-189 -71.5zM588 1499q-51 0 -85 -34t-34 -85q0 -52 34 -86t85 -34t85 34t34 86q0 51 -34 85t-85 34zM803 526v527h289v-1053h-256l-27 127q-115 -139 -309 -139
q-68 0 -127 14t-113.5 48.5t-93 88t-61.5 137.5t-23 193v584h289v-545q0 -143 49 -212t155 -69q108 0 168 77t60 222z" />
    <glyph glyph-name="Uhungarumlaut" unicode="&#x170;" horiz-adv-x="1402" 
d="M571 1540h-196l149 295h316zM981 1540h-199l152 295h313zM113 618v816h307v-832q0 -174 67.5 -262t212.5 -88q146 0 214.5 88t68.5 262v832h307v-816q0 -307 -150.5 -468.5t-439.5 -161.5q-288 0 -437.5 161.5t-149.5 468.5z" />
    <glyph glyph-name="uhungarumlaut" unicode="&#x171;" horiz-adv-x="1191" 
d="M410 1454h315l-268 -295h-197zM1133 1454l-267 -295h-198l151 295h314zM803 526v527h289v-1053h-256l-27 127q-115 -139 -309 -139q-68 0 -127 14t-113.5 48.5t-93 88t-61.5 137.5t-23 193v584h289v-545q0 -143 49 -212t155 -69q108 0 168 77t60 222z" />
    <glyph glyph-name="Uogonek" unicode="&#x172;" horiz-adv-x="1402" 
d="M1026 -410h-184q-106 0 -175 54t-69 145q0 110 92 199q-69 6 -72 6q-250 22 -377.5 180.5t-127.5 443.5v816h307v-832q0 -174 67.5 -262t212.5 -88q146 0 214.5 88t68.5 262v832h307v-816q0 -360 -227 -528q-20 -16 -56.5 -43.5t-53 -40t-42 -34t-37 -34.5t-24.5 -31.5
t-18 -35t-5 -35.5q0 -53 68 -53h131v-193z" />
    <glyph glyph-name="uogonek" unicode="&#x173;" horiz-adv-x="1191" 
d="M965 -217h131v-193h-185q-105 0 -174 54.5t-69 144.5q0 136 161 246l-20 92q-115 -139 -309 -139q-68 0 -127 14t-113.5 48.5t-93 88t-61.5 137.5t-23 193v584h289v-545q0 -143 49 -212t155 -69q108 0 168 77t60 222v527h289v-1053q-195 -87 -195 -164q0 -53 68 -53z" />
    <glyph glyph-name="Wcircumflex" unicode="&#x174;" horiz-adv-x="2011" 
d="M1126 1544l-125 121l-127 -121h-264l262 291h258l263 -291h-267zM408 0l-400 1434l320 2l264 -1049l280 1047h277l272 -1047l271 1047h311l-399 -1434h-353l-250 952l-241 -952h-352z" />
    <glyph glyph-name="wcircumflex" unicode="&#x175;" horiz-adv-x="1677" 
d="M969 1163l-125 121l-127 -121h-264l262 291h258l262 -291h-266zM344 0l-344 1053h305l211 -742l199 742h260l192 -744l215 744h295l-346 -1053h-307l-184 635l-189 -635h-307z" />
    <glyph glyph-name="Ycircumflex" unicode="&#x176;" horiz-adv-x="1359" 
d="M813 1544l-125 121l-127 -121h-264l262 291h258l262 -291h-266zM526 532l-526 902h358l322 -588l338 588h342l-526 -902v-532h-308v532z" />
    <glyph glyph-name="ycircumflex" unicode="&#x177;" horiz-adv-x="1118" 
d="M680 1163l-125 121l-127 -121h-264l262 291h258l262 -291h-266zM403 -6l-405 1059h307l256 -750l250 750h309l-467 -1203q-28 -73 -49.5 -115.5t-54 -78.5t-75 -51t-103.5 -15h-281v244h160q55 0 80 18t47 72z" />
    <glyph glyph-name="Ydieresis" unicode="&#x178;" horiz-adv-x="1359" 
d="M322 1710q0 64 44 107t109 43q66 0 111 -43t45 -107q0 -63 -45 -106t-111 -43q-65 0 -109 43t-44 106zM748 1710q0 64 44 107t109 43q66 0 110 -43t44 -107q0 -63 -44 -106t-110 -43q-65 0 -109 43t-44 106zM526 532l-526 902h358l322 -588l338 588h342l-526 -902v-532
h-308v532z" />
    <glyph glyph-name="Zacute" unicode="&#x179;" horiz-adv-x="1280" 
d="M752 1546h-211l149 289h330zM70 1171v263h1140v-203l-735 -969h754v-262h-1178v203l735 968h-716z" />
    <glyph glyph-name="zacute" unicode="&#x17a;" horiz-adv-x="1030" 
d="M623 1165h-211l149 289h330zM70 809v244h891v-197l-527 -612h551v-244h-940v197l526 612h-501z" />
    <glyph glyph-name="Zdotaccent" unicode="&#x17b;" horiz-adv-x="1280" 
d="M641 1546q-71 0 -119.5 46.5t-48.5 115.5q0 70 48.5 117t119.5 47t119.5 -47t48.5 -117q0 -69 -48.5 -115.5t-119.5 -46.5zM70 1171v263h1140v-203l-735 -969h754v-262h-1178v203l735 968h-716z" />
    <glyph glyph-name="zdotaccent" unicode="&#x17c;" horiz-adv-x="1030" 
d="M512 1165q-71 0 -119.5 46.5t-48.5 115.5q0 70 48.5 117t119.5 47t119.5 -47t48.5 -117q0 -69 -48.5 -115.5t-119.5 -46.5zM70 809v244h891v-197l-527 -612h551v-244h-940v197l526 612h-501z" />
    <glyph glyph-name="Zcaron" unicode="&#x17d;" horiz-adv-x="1280" 
d="M516 1835l125 -121l127 121h264l-262 -291h-258l-262 291h266zM70 1171v263h1140v-203l-735 -969h754v-262h-1178v203l735 968h-716z" />
    <glyph glyph-name="zcaron" unicode="&#x17e;" horiz-adv-x="1030" 
d="M387 1454l125 -121l127 121h264l-262 -291h-258l-262 291h266zM70 809v244h891v-197l-527 -612h551v-244h-940v197l526 612h-501z" />
    <glyph glyph-name="florin" unicode="&#x192;" horiz-adv-x="985" 
d="M956 1188h-178q-92 0 -98 -92l-27 -312h221v-213h-239l-45 -508q-12 -133 -96 -206.5t-230 -73.5h-235v246h180q90 0 96 92l39 450h-209v213h227l33 369q12 134 96 207.5t230 73.5h235v-246z" />
    <glyph glyph-name="AEacute" unicode="&#x1fc;" horiz-adv-x="2039" 
d="M1212 1835h330l-268 -289h-211zM1298 596v-332h680v-264h-987v303h-504l-182 -303h-317l839 1434h1127v-265h-656v-321h533v-252h-533zM991 1174l-362 -623h362v623z" />
    <glyph glyph-name="aeacute" unicode="&#x1fd;" horiz-adv-x="1863" 
d="M973 1434h330l-269 -289h-213zM1796 461h-762v-8q9 -116 72.5 -181t175.5 -65q87 0 145 38t78 111h285q-26 -160 -156.5 -264t-330.5 -104q-288 0 -424 194q-144 -194 -414 -194q-114 0 -205 34.5t-146 106t-55 168.5q0 162 124 248t360 86h209v67q0 71 -53.5 113.5
t-143.5 42.5q-79 0 -131.5 -35t-61.5 -94h-278q15 163 143.5 251.5t341.5 88.5q118 0 215.5 -37t151.5 -106q131 143 338 143q236 0 382.5 -138t147.5 -368q0 -54 -8 -98zM1276 850q-95 0 -159.5 -54t-76.5 -147h476q-13 96 -77.5 148.5t-162.5 52.5zM752 422v24h-199
q-97 0 -150 -32.5t-53 -96.5q0 -55 42 -87.5t114 -32.5q113 0 179.5 61.5t66.5 163.5z" />
    <glyph glyph-name="uni0218" unicode="&#x218;" horiz-adv-x="1280" 
d="M66 471l301 -4q8 -106 87.5 -171t209.5 -65q109 0 177 46t68 129q0 23 -4.5 41t-18 33.5t-26 27t-40 22.5t-48.5 18.5t-63 17t-71 15.5t-85 17q-81 15 -141 32.5t-122.5 49t-102 74t-64.5 108t-25 150.5q0 192 147 313t388 121q253 0 403.5 -122.5t153.5 -328.5h-301
q-11 93 -78.5 149t-177.5 56q-102 0 -163.5 -42.5t-61.5 -123.5q0 -25 8 -45t19 -35t36.5 -28.5t48 -22.5t66 -19.5t77 -17t95.5 -18.5q83 -15 143.5 -32t124.5 -48t103.5 -72.5t65 -106.5t24.5 -149q-2 -202 -155.5 -327t-404.5 -125q-272 0 -431.5 131.5t-161.5 351.5z
M395 -399l107 301h282l-174 -301h-215z" />
    <glyph glyph-name="uni0219" unicode="&#x219;" horiz-adv-x="1085" 
d="M51 350h275q8 -71 68 -113t163 -42q92 0 143.5 28.5t51.5 83.5q0 56 -50 78q-36 16 -172 34h-1l-1 1h-1h-1h-1h-1h-1h-1l-1 1h-1h-1h-1h-1h-1h-1l-1 1h-1h-1h-2q-81 10 -140.5 22t-118.5 34t-95.5 53.5t-59 80t-22.5 111.5q0 156 124.5 251t327.5 93q215 0 348.5 -90.5
t143.5 -249.5h-277q-6 63 -61 99t-143 36q-86 0 -136.5 -28.5t-50.5 -79.5q0 -19 6.5 -33.5t22 -25t32 -17.5t47.5 -12.5t56 -9t69 -8.5q6 -1 9 -1q81 -8 140 -19.5t119 -34.5t98 -56t61.5 -85.5t23.5 -121.5q0 -156 -132.5 -249t-346.5 -93q-221 0 -358 97t-146 265z
M297 -401l106 301h283l-174 -301h-215z" />
    <glyph glyph-name="uni021A" unicode="&#x21a;" horiz-adv-x="1218" 
d="M41 1169v265h1137v-265h-416v-1169h-307v1169h-414zM352 -399l107 301h282l-174 -301h-215z" />
    <glyph glyph-name="uni021B" unicode="&#x21b;" horiz-adv-x="745" 
d="M176 301v508h-174v244h174v295h289v-295h242v-244h-242v-461q0 -56 23.5 -80t80.5 -24h144v-244h-236q-301 0 -301 301zM197 -399l106 301h283l-174 -301h-215z" />
    <glyph glyph-name="uni0237" unicode="&#x237;" horiz-adv-x="499" 
d="M-94 -410v244h100q54 0 79.5 28t25.5 89v1102h288v-1143q0 -149 -77.5 -234.5t-225.5 -85.5h-190z" />
    <glyph glyph-name="uni02BC" unicode="&#x2bc;" horiz-adv-x="774" 
d="M225 1130l72 304h270l-139 -304h-203z" />
    <glyph glyph-name="circumflex" unicode="&#x2c6;" horiz-adv-x="819" 
d="M535 1143l-125 121l-127 -121h-265l263 291h258l262 -291h-266z" />
    <glyph glyph-name="caron" unicode="&#x2c7;" horiz-adv-x="819" 
d="M285 1434l125 -121l127 121h264l-262 -291h-258l-263 291h267z" />
    <glyph glyph-name="breve" unicode="&#x2d8;" horiz-adv-x="819" 
d="M90 1434h207q0 -53 30.5 -84t82.5 -31q50 0 81 31.5t31 83.5h207q-6 -135 -95.5 -218t-230.5 -83q-136 0 -221.5 82.5t-91.5 218.5z" />
    <glyph glyph-name="dotaccent" unicode="&#x2d9;" horiz-adv-x="819" 
d="M410 1157q-71 0 -119.5 47t-48.5 117t48.5 117t119.5 47t119.5 -47t48.5 -117t-48.5 -117t-119.5 -47z" />
    <glyph glyph-name="ring" unicode="&#x2da;" horiz-adv-x="819" 
d="M143 1360q0 103 77.5 175.5t189.5 72.5t189 -72.5t77 -175.5q0 -104 -77 -176t-189 -72t-189.5 72t-77.5 176zM528 1360q0 51 -33.5 85t-84.5 34t-85 -34t-34 -85q0 -52 34 -86.5t85 -34.5t84.5 34.5t33.5 86.5z" />
    <glyph glyph-name="ogonek" unicode="&#x2db;" horiz-adv-x="819" 
d="M-14 -211q0 78 46.5 139t129.5 117l248 -45q-195 -87 -195 -164q0 -53 68 -53h131v-193h-185q-105 0 -174 54.5t-69 144.5z" />
    <glyph glyph-name="tilde" unicode="&#x2dc;" horiz-adv-x="819" 
d="M326 1253q-31 0 -49.5 -22.5t-18.5 -56.5h-172v40q0 95 55.5 158.5t141.5 63.5q40 0 72.5 -13.5t50 -29.5t41.5 -29.5t49 -13.5q30 0 47.5 22.5t17.5 57.5h172v-44q0 -94 -56 -157.5t-140 -63.5q-41 0 -74.5 13.5t-51 30.5t-40.5 30.5t-45 13.5z" />
    <glyph glyph-name="hungarumlaut" unicode="&#x2dd;" horiz-adv-x="821" 
d="M279 1139h-197l149 295h316zM688 1139h-199l152 295h313z" />
    <glyph glyph-name="gravecomb" unicode="&#x300;" horiz-adv-x="0" 
d="M-524 1139l-256 295h329l144 -295h-217z" />
    <glyph glyph-name="acutecomb" unicode="&#x301;" horiz-adv-x="0" 
d="M-299 1145h-211l150 289h329z" />
    <glyph glyph-name="uni0302" unicode="&#x302;" horiz-adv-x="0" 
d="M-285 1143l-125 121l-127 -121h-264l262 291h258l263 -291h-267z" />
    <glyph glyph-name="tildecomb" unicode="&#x303;" horiz-adv-x="0" 
d="M-494 1253q-31 0 -49 -22.5t-18 -56.5h-172v40q0 95 55.5 158.5t140.5 63.5q40 0 72.5 -13.5t50 -29.5t41.5 -29.5t49 -13.5q30 0 48 22.5t18 57.5h172v-44q0 -94 -56.5 -157.5t-140.5 -63.5q-41 0 -74.5 13.5t-51 30.5t-40.5 30.5t-45 13.5z" />
    <glyph glyph-name="uni0304" unicode="&#x304;" horiz-adv-x="0" 
d="M-90 1206h-637v205h637v-205z" />
    <glyph glyph-name="uni0306" unicode="&#x306;" horiz-adv-x="0" 
d="M-729 1434h207q0 -53 30 -84t82 -31q50 0 81.5 31.5t31.5 83.5h207q-6 -135 -95.5 -218t-230.5 -83q-136 0 -221.5 82.5t-91.5 218.5z" />
    <glyph glyph-name="uni0307" unicode="&#x307;" horiz-adv-x="0" 
d="M-410 1145q-71 0 -119.5 46.5t-48.5 115.5q0 70 48.5 116.5t119.5 46.5t119.5 -46.5t48.5 -116.5q0 -69 -48.5 -115.5t-119.5 -46.5z" />
    <glyph glyph-name="uni0308" unicode="&#x308;" horiz-adv-x="0" 
d="M-776 1309q0 64 44 106.5t109 42.5q66 0 111 -42.5t45 -106.5q0 -63 -45 -106.5t-111 -43.5q-64 0 -108.5 43.5t-44.5 106.5zM-350 1309q0 64 44 106.5t109 42.5q66 0 110 -42.5t44 -106.5q0 -63 -44 -106.5t-110 -43.5q-64 0 -108.5 43.5t-44.5 106.5z" />
    <glyph glyph-name="uni030A" unicode="&#x30a;" horiz-adv-x="0" 
d="M-676 1360q0 103 77 175.5t189 72.5t189.5 -72.5t77.5 -175.5q0 -104 -77.5 -176t-189.5 -72t-189 72t-77 176zM-291 1360q0 51 -34 85t-85 34t-84.5 -34t-33.5 -85q0 -52 33.5 -86.5t84.5 -34.5t85 34.5t34 86.5z" />
    <glyph glyph-name="uni030B" unicode="&#x30b;" horiz-adv-x="0" 
d="M-541 1139h-196l149 295h316zM-131 1139h-199l152 295h313z" />
    <glyph glyph-name="uni030C" unicode="&#x30c;" horiz-adv-x="0" 
d="M-535 1434l125 -121l127 121h265l-263 -291h-258l-262 291h266z" />
    <glyph glyph-name="uni0312" unicode="&#x312;" horiz-adv-x="0" 
d="M-176 1434l-109 -299h-280l170 299h219z" />
    <glyph glyph-name="uni0326" unicode="&#x326;" horiz-adv-x="0" 
d="M-666 -399l107 301h283l-175 -301h-215z" />
    <glyph glyph-name="uni0327" unicode="&#x327;" horiz-adv-x="0" 
d="M-532 -172l59 238h158l-35 -127h22q90 0 143.5 -42t53.5 -116q0 -88 -60.5 -139.5t-162.5 -51.5h-244v142h190q58 0 58 51q0 45 -58 45h-124z" />
    <glyph glyph-name="uni0328" unicode="&#x328;" horiz-adv-x="0" 
d="M-834 -211q0 78 46.5 139t130.5 117l247 -45q-194 -87 -194 -164q0 -53 67 -53h131v-193h-184q-105 0 -174.5 54.5t-69.5 144.5z" />
    <glyph glyph-name="uni0374" unicode="&#x374;" horiz-adv-x="489" 
d="M276 989h-192l66 445h309z" />
    <glyph glyph-name="uni0375" unicode="&#x375;" horiz-adv-x="489" 
d="M176 35h193l-64 -445h-311z" />
    <glyph glyph-name="uni037E" unicode="&#x37e;" horiz-adv-x="507" 
d="M70 868q0 75 49.5 123.5t124.5 48.5q74 0 124 -49t50 -123q0 -73 -50 -121.5t-124 -48.5q-75 0 -124.5 48.5t-49.5 121.5zM233 324q96 0 156 -75t60 -194q0 -169 -102.5 -259.5t-280.5 -92.5v150q94 1 144 40.5t50 98.5q0 20 -2 28q-32 -16 -65 -16q-60 0 -100 40.5
t-40 115.5q0 68 52.5 116t127.5 48z" />
    <glyph glyph-name="tonos" unicode="&#x384;" horiz-adv-x="819" 
d="M500 1145h-189l51 330h293z" />
    <glyph glyph-name="dieresistonos" unicode="&#x385;" horiz-adv-x="1196" 
d="M625 1155h-146l-8 332h242zM227 1208q-46 15 -68 56t-7 88q17 47 59 68.5t88 6.5q48 -15 70.5 -56.5t5.5 -88.5q-15 -49 -57.5 -69t-90.5 -5zM840 1208q-46 15 -67.5 56t-6.5 88t57 68.5t88 6.5q47 -15 69.5 -56.5t8.5 -88.5q-15 -49 -58 -69t-91 -5z" />
    <glyph glyph-name="Alphatonos" unicode="&#x386;" horiz-adv-x="1429" 
d="M326 0h-318l524 1434h369l520 -1434h-329l-111 313h-545zM217 1104h-186l51 330h291zM707 1106l-189 -545h379z" />
    <glyph glyph-name="anoteleia" unicode="&#x387;" horiz-adv-x="507" 
d="M80 582q0 75 49.5 123.5t124.5 48.5q74 0 124 -49t50 -123q0 -73 -50 -121.5t-124 -48.5q-75 0 -124.5 48.5t-49.5 121.5z" />
    <glyph glyph-name="Epsilontonos" unicode="&#x388;" horiz-adv-x="1419" 
d="M150 1104h-187l51 330h291zM373 0v1434h962v-265h-655v-321h532v-252h-532v-332h678v-264h-985z" />
    <glyph glyph-name="Etatonos" unicode="&#x389;" horiz-adv-x="1677" 
d="M150 1104h-187l51 330h291zM373 0v1434h307v-576h569v576h307v-1434h-307v592h-569v-592h-307z" />
    <glyph glyph-name="Iotatonos" unicode="&#x38a;" horiz-adv-x="800" 
d="M150 1104h-187l51 330h291zM373 0v1434h307v-1434h-307z" />
    <glyph glyph-name="Omicrontonos" unicode="&#x38c;" horiz-adv-x="1624" 
d="M1561 717q0 -207 -89 -373t-252 -261t-370 -95t-370 95t-252 261t-89 373t89 373t252 261t370 95t370 -95t252 -261t89 -373zM141 1104h-186l51 330h291zM453 717q0 -205 109 -337t288 -132q178 0 286.5 132t108.5 337t-108.5 337t-286.5 132q-179 0 -288 -132t-109 -337
z" />
    <glyph glyph-name="Upsilontonos" unicode="&#x38e;" horiz-adv-x="1630" 
d="M100 1104h-186l51 330h291zM797 532l-527 902h359l321 -588l338 588h342l-526 -902v-532h-307v532z" />
    <glyph glyph-name="Omegatonos" unicode="&#x38f;" horiz-adv-x="1640" 
d="M745 0h-559v264h349v19q-92 33 -160 87.5t-108.5 125.5t-59.5 152.5t-19 176.5q0 190 88.5 332t242 215.5t351.5 73.5q199 0 352.5 -73.5t240.5 -215t87 -330.5q0 -197 -85.5 -341t-258.5 -203v-19h348v-264h-561v379q136 67 190 167t54 251q0 172 -103 280.5t-266 108.5
q-160 0 -263 -109t-103 -280q0 -152 52.5 -252t190.5 -168v-377zM131 1104h-186l51 330h291z" />
    <glyph glyph-name="iotadieresistonos" unicode="&#x390;" horiz-adv-x="583" 
d="M305 1176h-145l-8 331h241zM-92 1229q-46 15 -68.5 55.5t-7.5 87.5q17 47 59.5 69t88.5 7q48 -15 70 -56.5t5 -88.5q-15 -49 -57 -69t-90 -5zM520 1229q-46 15 -67.5 55.5t-6.5 87.5t57.5 69t88.5 7q47 -15 69.5 -56.5t8.5 -88.5q-15 -48 -58.5 -68.5t-91.5 -5.5zM563 0
h-176q-153 0 -223 70t-70 221v762h289v-701q0 -64 25 -86t86 -22h69v-244z" />
    <glyph glyph-name="Alpha" unicode="&#x391;" horiz-adv-x="1429" 
d="M326 0h-318l524 1434h369l520 -1434h-329l-111 313h-545zM707 1106l-189 -545h379z" />
    <glyph glyph-name="Beta" unicode="&#x392;" horiz-adv-x="1304" 
d="M123 0v1434h545q249 0 386.5 -99.5t137.5 -279.5q0 -131 -71.5 -211t-198.5 -107q150 -20 235.5 -101t85.5 -228q0 -190 -144 -299t-405 -109h-571zM676 1192h-246v-348h246q98 0 153.5 47t55.5 127t-55 127t-154 47zM696 606h-266v-362h266q110 0 171 47t61 131
q0 87 -61.5 135.5t-170.5 48.5z" />
    <glyph glyph-name="Gamma" unicode="&#x393;" horiz-adv-x="1093" 
d="M430 0h-307v1434h930v-265h-623v-1169z" />
    <glyph glyph-name="uni0394" unicode="&#x394;" horiz-adv-x="1454" 
d="M1403 0h-1352v203l500 1231h354l498 -1231v-203zM715 1137l-332 -873h670z" />
    <glyph glyph-name="Epsilon" unicode="&#x395;" horiz-adv-x="1169" 
d="M123 0v1434h962v-265h-655v-321h533v-252h-533v-332h678v-264h-985z" />
    <glyph glyph-name="Zeta" unicode="&#x396;" horiz-adv-x="1280" 
d="M70 1171v263h1140v-203l-735 -969h754v-262h-1178v203l735 968h-716z" />
    <glyph glyph-name="Eta" unicode="&#x397;" horiz-adv-x="1427" 
d="M123 0v1434h307v-576h569v576h308v-1434h-308v592h-569v-592h-307z" />
    <glyph glyph-name="Theta" unicode="&#x398;" horiz-adv-x="1550" 
d="M776 -12q-207 0 -370 95t-251.5 261t-88.5 373t88.5 373t251.5 261t370 95t370 -95t252 -261t89 -373t-89 -373t-252 -261t-370 -95zM776 248q186 0 298 127.5t112 341.5t-112 341.5t-298 127.5q-187 0 -299 -127.5t-112 -341.5t112 -341.5t299 -127.5zM1059 610h-567
v217h567v-217z" />
    <glyph glyph-name="Iota" unicode="&#x399;" horiz-adv-x="550" 
d="M123 0v1434h307v-1434h-307z" />
    <glyph glyph-name="Kappa" unicode="&#x39a;" horiz-adv-x="1398" 
d="M123 0v1434h307v-650l574 650h372l-530 -598l565 -836h-369l-413 610l-199 -225v-385h-307z" />
    <glyph glyph-name="Lambda" unicode="&#x39b;" horiz-adv-x="1390" 
d="M324 0h-316l502 1434h367l505 -1434h-329l-367 1065z" />
    <glyph glyph-name="Mu" unicode="&#x39c;" horiz-adv-x="1826" 
d="M123 0v1434h403l398 -1053l385 1053h395v-1434h-293v961l-373 -961h-250l-372 961v-961h-293z" />
    <glyph glyph-name="Nu" unicode="&#x39d;" horiz-adv-x="1433" 
d="M424 0h-301v1434h278l609 -904v904h303v-1434h-281l-608 903v-903z" />
    <glyph glyph-name="Xi" unicode="&#x39e;" horiz-adv-x="1253" 
d="M1169 1169h-1085v265h1085v-265zM1092 592h-930v264h930v-264zM1182 0h-1110v264h1110v-264z" />
    <glyph glyph-name="Omicron" unicode="&#x39f;" horiz-adv-x="1550" 
d="M1487 717q0 -207 -89 -373t-252 -261t-370 -95t-370 95t-251.5 261t-88.5 373t88.5 373t251.5 261t370 95t370 -95t252 -261t89 -373zM379 717q0 -205 109 -337t288 -132q178 0 286.5 132t108.5 337t-108.5 337t-286.5 132q-179 0 -288 -132t-109 -337z" />
    <glyph glyph-name="Pi" unicode="&#x3a0;" horiz-adv-x="1427" 
d="M430 0h-307v1434h1182v-1434h-308v1169h-567v-1169z" />
    <glyph glyph-name="Rho" unicode="&#x3a1;" horiz-adv-x="1273" 
d="M123 0v1434h584q234 0 376 -130t142 -348q0 -216 -142 -345.5t-376 -129.5h-277v-481h-307zM678 1178h-248v-441h248q108 0 171.5 59t63.5 160q0 102 -63.5 162t-171.5 60z" />
    <glyph glyph-name="Sigma" unicode="&#x3a3;" horiz-adv-x="1249" 
d="M1190 0h-1135v207l504 524l-475 496v207h1090v-265h-635l356 -385v-98l-406 -422h701v-264z" />
    <glyph glyph-name="Tau" unicode="&#x3a4;" horiz-adv-x="1218" 
d="M41 1169v265h1137v-265h-416v-1169h-307v1169h-414z" />
    <glyph glyph-name="Upsilon" unicode="&#x3a5;" horiz-adv-x="1359" 
d="M526 532l-526 902h358l322 -588l338 588h342l-526 -902v-532h-308v532z" />
    <glyph glyph-name="Phi" unicode="&#x3a6;" horiz-adv-x="1742" 
d="M1677 717q0 -283 -174 -456t-483 -202v-133h-297v133q-309 29 -483 202t-174 456q0 281 174 453.5t483 203.5v133h297v-133q308 -29 482.5 -202t174.5 -455zM362 717q0 -173 90 -279t271 -133v823q-180 -27 -270.5 -132.5t-90.5 -278.5zM1020 1128v-823
q179 26 268.5 132.5t89.5 279.5t-89.5 278.5t-268.5 132.5z" />
    <glyph glyph-name="Chi" unicode="&#x3a7;" horiz-adv-x="1361" 
d="M20 0l467 733l-444 701h365l278 -455l289 455h344l-445 -697l467 -737h-366l-301 492l-312 -492h-342z" />
    <glyph glyph-name="Psi" unicode="&#x3a8;" horiz-adv-x="1712" 
d="M1315 1065v369h301v-385q0 -326 -152 -492.5t-458 -196.5v-360h-297v360q-305 30 -458 196t-153 493v385h299v-369q0 -217 71 -317t241 -125v811h297v-811q170 25 239.5 125t69.5 317z" />
    <glyph glyph-name="uni03A9" unicode="&#x3a9;" horiz-adv-x="1540" 
d="M645 0h-559v264h348v19q-346 124 -346 542q0 190 88.5 332t242 215.5t351.5 73.5q199 0 352.5 -73.5t240.5 -215t87 -330.5q0 -197 -85.5 -341t-258.5 -203v-19h348v-264h-561v379q136 67 190 167t54 251q0 172 -103 280.5t-266 108.5q-160 0 -263.5 -109t-103.5 -280
q0 -152 53 -251.5t191 -168.5v-377z" />
    <glyph glyph-name="Iotadieresis" unicode="&#x3aa;" horiz-adv-x="550" 
d="M-92 1710q0 64 44 107t109 43q66 0 111 -43t45 -107q0 -63 -45 -106t-111 -43q-65 0 -109 43t-44 106zM334 1710q0 64 44 107t109 43q66 0 110 -43t44 -107q0 -63 -44 -106t-110 -43q-65 0 -109 43t-44 106zM123 0v1434h307v-1434h-307z" />
    <glyph glyph-name="Upsilondieresis" unicode="&#x3ab;" horiz-adv-x="1359" 
d="M322 1710q0 64 44 107t109 43q66 0 111 -43t45 -107q0 -63 -45 -106t-111 -43q-65 0 -109 43t-44 106zM748 1710q0 64 44 107t109 43q66 0 110 -43t44 -107q0 -63 -44 -106t-110 -43q-65 0 -109 43t-44 106zM526 532l-526 902h358l322 -588l338 588h342l-526 -902v-532
h-308v532z" />
    <glyph glyph-name="alphatonos" unicode="&#x3ac;" horiz-adv-x="1261" 
d="M563 1495h293l-156 -330h-188zM1208 244h31v-244h-160q-98 0 -148 40.5t-59 125.5q-121 -178 -329 -178q-214 0 -349 146.5t-135 393.5q0 242 135 389.5t347 147.5q207 0 317 -154l29 142h254v-744q0 -39 15.5 -52t51.5 -13zM606 223q114 0 181 83t67 218q0 137 -67 221
t-181 84q-115 0 -183.5 -83.5t-68.5 -219.5t68.5 -219.5t183.5 -83.5z" />
    <glyph glyph-name="epsilontonos" unicode="&#x3ad;" horiz-adv-x="1089" 
d="M512 1495h293l-156 -330h-188zM768 350h289q-3 -175 -136 -268.5t-393 -93.5q-228 0 -355.5 78t-127.5 227q0 100 55 161.5t158 82.5q-180 44 -180 217q0 139 130.5 225t354.5 86q225 0 353.5 -96.5t134.5 -257.5h-289q-13 149 -207 149q-88 0 -139 -31t-51 -88
q0 -106 172 -106h125v-211h-142q-92 0 -137 -26.5t-45 -86.5q0 -123 213 -123q205 0 217 162z" />
    <glyph glyph-name="etatonos" unicode="&#x3ae;" horiz-adv-x="1236" 
d="M489 1495h293l-155 -330h-189zM733 1065q95 0 169.5 -27t132.5 -84t89 -154t31 -229v-981h-289v965q0 272 -211 272q-112 0 -173.5 -75.5t-61.5 -212.5v-539h-289v743q0 39 -16 52.5t-52 13.5h-32v244h162q93 0 141 -37t57 -113q58 77 139 119.5t203 42.5z" />
    <glyph glyph-name="iotatonos" unicode="&#x3af;" horiz-adv-x="583" 
d="M332 1165h-189l52 330h292zM563 0h-176q-153 0 -223 70t-70 221v762h289v-701q0 -64 25 -86t86 -22h69v-244z" />
    <glyph glyph-name="upsilondieresistonos" unicode="&#x3b0;" horiz-adv-x="1161" 
d="M639 1174h-143l-11 333h242zM244 1227q-47 15 -69.5 56.5t-8.5 88.5q17 47 59.5 68t89.5 6t69 -57.5t5 -88.5q-13 -47 -56 -67.5t-89 -5.5zM854 1227q-45 15 -66 56.5t-8 88.5q15 47 58.5 68t89.5 6t68.5 -57t7.5 -89t-58.5 -67.5t-91.5 -5.5zM582 -12q-83 0 -154 14
t-136 48.5t-110.5 87.5t-72.5 136t-27 189v590h289v-559q0 -137 49 -202t162 -65q112 0 160.5 65t48.5 202v559h288v-590q0 -106 -27 -189t-72 -136t-110 -87.5t-135.5 -48.5t-152.5 -14z" />
    <glyph glyph-name="alpha" unicode="&#x3b1;" horiz-adv-x="1261" 
d="M1208 244h31v-244h-160q-98 0 -148 40.5t-59 125.5q-121 -178 -329 -178q-214 0 -349 146.5t-135 393.5q0 242 135 389.5t347 147.5q207 0 317 -154l29 142h254v-744q0 -39 15.5 -52t51.5 -13zM606 223q114 0 181 83t67 218q0 137 -67 221t-181 84q-115 0 -183.5 -83.5
t-68.5 -219.5t68.5 -219.5t183.5 -83.5z" />
    <glyph glyph-name="beta" unicode="&#x3b2;" horiz-adv-x="1249" 
d="M911 766q285 -75 285 -360q0 -129 -67.5 -225t-177 -144t-242.5 -49q-206 0 -320 123v-521h-289v1362q0 125 40.5 221.5t111.5 155t162.5 88t199.5 29.5q221 0 355.5 -106t134.5 -281q-1 -106 -53 -182t-140 -111zM664 211q104 0 172.5 55t68.5 156q0 203 -266 203h-80
v204h35q117 0 168 55.5t51 143.5q0 85 -54 135.5t-151 50.5q-105 0 -162 -62t-57 -163v-536q0 -117 77.5 -179.5t197.5 -62.5z" />
    <glyph glyph-name="gamma" unicode="&#x3b3;" horiz-adv-x="1132" 
d="M831 1053h304l-422 -1030v-357h-289v346l-426 1041h309l264 -707z" />
    <glyph glyph-name="delta" unicode="&#x3b4;" horiz-adv-x="1206" 
d="M592 -12q-245 0 -389 127.5t-144 351.5q0 173 95 291t245 160q60 17 103 22l-326 268v226h914v-242h-500l227 -186q89 -70 146.5 -125t101 -118t63 -131t19.5 -151q0 -103 -36.5 -192.5t-105.5 -156.5t-175 -105.5t-238 -38.5zM604 213q116 0 186 71.5t70 192.5
q0 119 -70.5 190.5t-183.5 71.5q-117 0 -186.5 -71.5t-69.5 -190.5q0 -121 69 -192.5t185 -71.5z" />
    <glyph glyph-name="epsilon" unicode="&#x3b5;" horiz-adv-x="1089" 
d="M768 350h289q-3 -175 -136 -268.5t-393 -93.5q-228 0 -355.5 78t-127.5 227q0 100 55 161.5t158 82.5q-180 44 -180 217q0 139 130.5 225t354.5 86q225 0 353.5 -96.5t134.5 -257.5h-289q-13 149 -207 149q-88 0 -139 -31t-51 -88q0 -106 172 -106h125v-211h-142
q-92 0 -137 -26.5t-45 -86.5q0 -123 213 -123q205 0 217 162z" />
    <glyph glyph-name="zeta" unicode="&#x3b6;" horiz-adv-x="1038" 
d="M1024 -276h-252v139q0 76 -30 104.5t-107 30.5l-129 2q-449 6 -449 375q0 129 64 247t201 261l294 307h-518v244h889v-197l-321 -336q-90 -93 -139 -148t-94.5 -117t-64 -112t-18.5 -102q0 -177 223 -180l115 -2q172 -2 254 -72t82 -236v-208z" />
    <glyph glyph-name="eta" unicode="&#x3b7;" horiz-adv-x="1236" 
d="M733 1065q95 0 169.5 -27t132.5 -84t89 -154t31 -229v-981h-289v965q0 272 -211 272q-112 0 -173.5 -75.5t-61.5 -212.5v-539h-289v743q0 39 -16 52.5t-52 13.5h-32v244h162q93 0 141 -37t57 -113q58 77 139 119.5t203 42.5z" />
    <glyph glyph-name="theta" unicode="&#x3b8;" horiz-adv-x="1224" 
d="M612 1446q260 0 406.5 -189t146.5 -540q0 -346 -147.5 -537.5t-405.5 -191.5t-405.5 191.5t-147.5 537.5q0 347 147 538t406 191zM612 1206q-232 0 -262 -364h524q-17 185 -82 274.5t-180 89.5zM612 227q235 0 262 381h-526q27 -381 264 -381z" />
    <glyph glyph-name="iota" unicode="&#x3b9;" horiz-adv-x="583" 
d="M563 0h-176q-153 0 -223 70t-70 221v762h289v-701q0 -64 25 -86t86 -22h69v-244z" />
    <glyph glyph-name="kappa" unicode="&#x3ba;" horiz-adv-x="1136" 
d="M748 590l382 -590h-333l-242 385l-166 -201v-184h-289v1053h289v-514l227 303q65 90 112.5 132.5t103.5 60.5t145 18h106v-244h-61q-62 0 -93 -16.5t-81 -77.5z" />
    <glyph glyph-name="lambda" unicode="&#x3bb;" horiz-adv-x="1155" 
d="M317 0h-303l416 1008l-31 86q-23 60 -48.5 78t-84.5 18h-141v244h219q76 0 123 -11t85.5 -46t65.5 -85.5t64 -144.5l459 -1147h-310l-251 686z" />
    <glyph glyph-name="uni03BC" unicode="&#x3bc;" horiz-adv-x="1230" 
d="M1178 244h32v-244h-161q-87 0 -140 37t-65 104q-98 -153 -293 -153q-50 0 -94.5 15.5t-67.5 37.5v-451h-289v1463h289v-543q0 -283 211 -283q102 0 161.5 79.5t59.5 219.5v527h289v-744q0 -39 16 -52t52 -13z" />
    <glyph glyph-name="nu" unicode="&#x3bd;" horiz-adv-x="1110" 
d="M377 0l-379 1053h309l254 -758l250 758h303l-379 -1053h-358z" />
    <glyph glyph-name="xi" unicode="&#x3be;" horiz-adv-x="1052" 
d="M1024 -276h-254v139q0 76 -27.5 104.5t-99.5 30.5l-111 2q-228 5 -347 94.5t-119 278.5q0 144 76.5 234.5t203.5 121.5q-109 25 -167 84t-58 164q0 157 198 229h-249v228h905v-224q-165 -6 -168 -6q-195 -9 -293 -55t-98 -139q0 -166 243 -166h236v-240h-268
q-135 0 -202 -47t-67 -147q0 -86 61.5 -126.5t180.5 -43.5l88 -2q172 -5 254 -73.5t82 -230.5v-210z" />
    <glyph glyph-name="omicron" unicode="&#x3bf;" 
d="M614 -12q-252 0 -403.5 147.5t-151.5 390.5t151.5 391t403.5 148t403.5 -148t151.5 -391q0 -244 -151.5 -391t-403.5 -147zM614 223q120 0 191.5 84t71.5 219t-71.5 219t-191.5 84t-190 -84t-70 -219t70 -219t190 -84z" />
    <glyph glyph-name="pi" unicode="&#x3c0;" horiz-adv-x="1300" 
d="M1264 1053v-244h-164v-500q0 -39 14.5 -52t50.5 -13h41v-244h-176q-113 0 -167 53.5t-54 167.5v588h-338v-809h-289v809h-153v244h1235z" />
    <glyph glyph-name="rho" unicode="&#x3c1;" horiz-adv-x="1236" 
d="M627 1065q252 0 401.5 -145t149.5 -388q0 -242 -150 -393t-375 -151q-162 0 -282 86v-484h-289v891q0 268 148.5 426t396.5 158zM625 223q117 0 187.5 85t70.5 220t-70 218t-188 83q-117 0 -187.5 -85t-70.5 -220q0 -136 68.5 -218.5t189.5 -82.5z" />
    <glyph glyph-name="uni03C2" unicode="&#x3c2;" horiz-adv-x="1140" 
d="M1012 -276h-252v139q0 76 -28.5 105.5t-100.5 31.5h-68q-255 3 -379.5 138t-124.5 388q0 245 148.5 392t398.5 147q212 0 343.5 -108t162.5 -298h-301q-19 80 -72.5 125t-136.5 45q-113 0 -180.5 -83t-67.5 -220q0 -281 271 -284l69 -2q164 -2 241 -72.5t77 -235.5v-208z
" />
    <glyph glyph-name="sigma" unicode="&#x3c3;" horiz-adv-x="1290" 
d="M614 -12q-252 0 -403.5 145t-151.5 387q0 241 151 387t400 146h647v-244h-223q64 -45 99.5 -126t35.5 -177q0 -231 -152 -374.5t-403 -143.5zM614 223q120 0 191.5 82t71.5 215t-71.5 215t-191.5 82t-190 -81.5t-70 -215.5t70 -215.5t190 -81.5z" />
    <glyph glyph-name="tau" unicode="&#x3c4;" horiz-adv-x="1026" 
d="M989 1053v-244h-350v-461q0 -56 23.5 -80t80.5 -24h146v-244h-238q-301 0 -301 301v508h-321v244h960z" />
    <glyph glyph-name="upsilon" unicode="&#x3c5;" horiz-adv-x="1161" 
d="M582 -12q-83 0 -154 14t-136 48.5t-110.5 87.5t-72.5 136t-27 189v590h289v-559q0 -137 49 -202t162 -65q112 0 160.5 65t48.5 202v559h288v-590q0 -106 -27 -189t-72 -136t-110 -87.5t-135.5 -48.5t-152.5 -14z" />
    <glyph glyph-name="phi" unicode="&#x3c6;" horiz-adv-x="1587" 
d="M930 -410h-275v398q-265 6 -425 151.5t-160 388.5q0 241 160 386t425 151v250h275v-250q265 -5 426.5 -150.5t161.5 -386.5q0 -243 -161.5 -389t-426.5 -151v-398zM655 221v608q-139 -5 -220 -85.5t-81 -215.5q0 -138 80.5 -220t220.5 -87zM930 829v-608q141 4 221 86.5
t80 220.5q0 135 -80 216t-221 85z" />
    <glyph glyph-name="chi" unicode="&#x3c7;" horiz-adv-x="1161" 
d="M295 -410h-307l430 746l-199 393q-25 47 -52 63.5t-81 16.5h-59v244h139q70 0 112 -9t78 -40.5t60.5 -73.5t64.5 -127l117 -242l266 492h293l-412 -713l228 -426q25 -48 50.5 -64t80.5 -16h59v-244h-119q-52 0 -87.5 3.5t-66 17.5t-49.5 27.5t-42.5 47t-39.5 63t-46 87.5
l-144 281z" />
    <glyph glyph-name="psi" unicode="&#x3c8;" horiz-adv-x="1519" 
d="M1149 557v496h289v-525q0 -107 -28.5 -193.5t-77.5 -145t-119 -100.5t-147.5 -64t-168.5 -31v-404h-274v406q-118 12 -211.5 46t-170 95t-118 160.5t-41.5 230.5v525h289v-496q0 -148 59 -224.5t193 -99.5v1082h274v-1084q132 22 192 99.5t60 226.5z" />
    <glyph glyph-name="omega" unicode="&#x3c9;" horiz-adv-x="1617" 
d="M483 -12q-84 0 -156.5 28t-131 84.5t-92 154.5t-33.5 228q0 179 70 337.5t157 232.5h305q-113 -134 -175 -270t-62 -304q0 -124 40 -190t119 -66q152 0 152 219v252h266v-252q0 -219 148 -219q79 0 121 66.5t42 189.5q0 168 -62 304t-175 270h305q87 -74 157 -232.5
t70 -337.5q0 -130 -33.5 -228t-92 -154.5t-131 -84.5t-156.5 -28q-139 0 -216.5 57.5t-111.5 165.5q-41 -111 -115 -167t-209 -56z" />
    <glyph glyph-name="iotadieresis" unicode="&#x3ca;" horiz-adv-x="583" 
d="M-129 1329q0 64 44.5 107t109.5 43q66 0 110.5 -43t44.5 -107q0 -63 -44.5 -106t-110.5 -43q-65 0 -109.5 43t-44.5 106zM297 1329q0 64 44.5 107t109.5 43q66 0 109.5 -42.5t43.5 -107.5q0 -63 -43.5 -106t-109.5 -43q-65 0 -109.5 43t-44.5 106zM563 0h-176
q-153 0 -223 70t-70 221v762h289v-701q0 -64 25 -86t86 -22h69v-244z" />
    <glyph glyph-name="upsilondieresis" unicode="&#x3cb;" horiz-adv-x="1161" 
d="M215 1329q0 64 44.5 107t109.5 43q66 0 110.5 -43t44.5 -107q0 -63 -44.5 -106t-110.5 -43q-65 0 -109.5 43t-44.5 106zM641 1329q0 64 44.5 107t109.5 43q66 0 109.5 -42.5t43.5 -107.5q0 -63 -43.5 -106t-109.5 -43q-65 0 -109.5 43t-44.5 106zM582 -12q-83 0 -154 14
t-136 48.5t-110.5 87.5t-72.5 136t-27 189v590h289v-559q0 -137 49 -202t162 -65q112 0 160.5 65t48.5 202v559h288v-590q0 -106 -27 -189t-72 -136t-110 -87.5t-135.5 -48.5t-152.5 -14z" />
    <glyph glyph-name="omicrontonos" unicode="&#x3cc;" 
d="M709 1165h-189l51 330h293zM614 -12q-252 0 -403.5 147.5t-151.5 390.5t151.5 391t403.5 148t403.5 -148t151.5 -391q0 -244 -151.5 -391t-403.5 -147zM614 223q120 0 191.5 84t71.5 219t-71.5 219t-191.5 84t-190 -84t-70 -219t70 -219t190 -84z" />
    <glyph glyph-name="upsilontonos" unicode="&#x3cd;" horiz-adv-x="1161" 
d="M674 1165h-189l52 330h292zM582 -12q-83 0 -154 14t-136 48.5t-110.5 87.5t-72.5 136t-27 189v590h289v-559q0 -137 49 -202t162 -65q112 0 160.5 65t48.5 202v559h288v-590q0 -106 -27 -189t-72 -136t-110 -87.5t-135.5 -48.5t-152.5 -14z" />
    <glyph glyph-name="omegatonos" unicode="&#x3ce;" horiz-adv-x="1617" 
d="M901 1165h-188l51 330h293zM483 -12q-84 0 -156.5 28t-131 84.5t-92 154.5t-33.5 228q0 179 70 337.5t157 232.5h305q-113 -134 -175 -270t-62 -304q0 -124 40 -190t119 -66q152 0 152 219v252h266v-252q0 -219 148 -219q79 0 121 66.5t42 189.5q0 168 -62 304t-175 270
h305q87 -74 157 -232.5t70 -337.5q0 -130 -33.5 -228t-92 -154.5t-131 -84.5t-156.5 -28q-139 0 -216.5 57.5t-111.5 165.5q-41 -111 -115 -167t-209 -56z" />
    <glyph glyph-name="uni0400" unicode="&#x400;" horiz-adv-x="1169" 
d="M504 1540l-256 295h330l143 -295h-217zM123 0v1434h962v-265h-655v-321h533v-252h-533v-332h678v-264h-985z" />
    <glyph glyph-name="uni0401" unicode="&#x401;" horiz-adv-x="1169" 
d="M252 1710q0 64 44.5 107t109.5 43q66 0 110.5 -43t44.5 -107q0 -63 -44.5 -106t-110.5 -43q-65 0 -109.5 43t-44.5 106zM678 1710q0 64 44 107t109 43q66 0 110 -43t44 -107q0 -63 -44 -106t-110 -43q-65 0 -109 43t-44 106zM123 0v1434h962v-265h-655v-321h533v-252
h-533v-332h678v-264h-985z" />
    <glyph glyph-name="uni0402" unicode="&#x402;" horiz-adv-x="1662" 
d="M1083 889q240 0 375 -125.5t135 -372.5v-184q0 -237 -130 -360t-361 -123h-94l-2 260h49q110 0 170.5 61t60.5 184v125q0 279 -274 279q-142 0 -250 -64v-569h-307v1169h-414v265h1223v-265h-502v-344q128 64 321 64z" />
    <glyph glyph-name="uni0403" unicode="&#x403;" horiz-adv-x="1052" 
d="M705 1546h-211l149 289h330zM430 0h-307v1434h889v-265h-582v-1169z" />
    <glyph glyph-name="uni0404" unicode="&#x404;" horiz-adv-x="1433" 
d="M745 244q132 0 216.5 69.5t111.5 184.5h309q-33 -229 -203.5 -369.5t-426.5 -140.5q-317 0 -501.5 198.5t-184.5 530.5t189 530.5t513 198.5q251 0 416.5 -140.5t199.5 -369.5h-309q-30 117 -113 185.5t-210 68.5q-147 0 -243 -92t-124 -254h494v-246h-496
q26 -167 120.5 -260.5t241.5 -93.5z" />
    <glyph glyph-name="uni0405" unicode="&#x405;" horiz-adv-x="1280" 
d="M66 471l301 -4q8 -106 87.5 -171t209.5 -65q109 0 177 46t68 129q0 23 -4.5 41t-18 33.5t-26 27t-40 22.5t-48.5 18.5t-63 17t-71 15.5t-85 17q-81 15 -141 32.5t-122.5 49t-102 74t-64.5 108t-25 150.5q0 192 147 313t388 121q253 0 403.5 -122.5t153.5 -328.5h-301
q-11 93 -78.5 149t-177.5 56q-102 0 -163.5 -42.5t-61.5 -123.5q0 -25 8 -45t19 -35t36.5 -28.5t48 -22.5t66 -19.5t77 -17t95.5 -18.5q83 -15 143.5 -32t124.5 -48t103.5 -72.5t65 -106.5t24.5 -149q-2 -202 -155.5 -327t-404.5 -125q-272 0 -431.5 131.5t-161.5 351.5z
" />
    <glyph glyph-name="uni0406" unicode="&#x406;" horiz-adv-x="550" 
d="M123 0v1434h307v-1434h-307z" />
    <glyph glyph-name="uni0407" unicode="&#x407;" horiz-adv-x="550" 
d="M-92 1710q0 64 44 107t109 43q66 0 111 -43t45 -107q0 -63 -45 -106t-111 -43q-65 0 -109 43t-44 106zM334 1710q0 64 44 107t109 43q66 0 110 -43t44 -107q0 -63 -44 -106t-110 -43q-65 0 -109 43t-44 106zM123 0v1434h307v-1434h-307z" />
    <glyph glyph-name="uni0408" unicode="&#x408;" horiz-adv-x="813" 
d="M383 440v994h307v-1053q0 -181 -100 -281t-281 -100h-264v264h170q89 0 128.5 42.5t39.5 133.5z" />
    <glyph glyph-name="uni0409" unicode="&#x409;" horiz-adv-x="2144" 
d="M98 0h-82v264h41q69 0 109 31.5t61 114t21 229.5v795h1057v-537h280q226 0 363 -122t137 -324q0 -203 -137.5 -327t-362.5 -124h-588v1169h-458v-559q0 -327 -105.5 -468.5t-335.5 -141.5zM1305 641v-385h254q98 0 155.5 52t57.5 143q0 89 -58.5 139.5t-157.5 50.5h-251z
" />
    <glyph glyph-name="uni040A" unicode="&#x40a;" horiz-adv-x="2127" 
d="M430 0h-307v1434h307v-543h553v543h307v-537h281q226 0 363 -122t137 -324t-138 -326.5t-362 -124.5h-588v627h-553v-627zM1290 641v-385h252q99 0 157 52.5t58 142.5q0 89 -58 139.5t-157 50.5h-252z" />
    <glyph glyph-name="uni040B" unicode="&#x40b;" horiz-adv-x="1669" 
d="M1077 889q235 0 369.5 -116.5t134.5 -354.5v-418h-307v375q0 132 -69 195t-193 63q-142 0 -250 -62v-571h-307v1169h-414v265h1223v-265h-502v-342q121 62 315 62z" />
    <glyph glyph-name="uni040C" unicode="&#x40c;" horiz-adv-x="1423" 
d="M805 1546h-211l149 289h330zM430 0h-307v1434h307v-576h207l387 576h348l-477 -684l508 -750h-367l-395 594h-211v-594z" />
    <glyph glyph-name="uni040D" unicode="&#x45d;" horiz-adv-x="1443" 
d="M610 1540l-256 295h330l143 -295h-217zM401 0h-278v1434h303v-936l616 936h279v-1434h-303v936z" />
    <glyph glyph-name="uni040D" unicode="&#x40d;" horiz-adv-x="1443" 
d="M610 1540l-256 295h330l143 -295h-217zM401 0h-278v1434h303v-936l616 936h279v-1434h-303v936z" />
    <glyph glyph-name="uni040E" unicode="&#x40e;" horiz-adv-x="1320" 
d="M655 1534q-156 0 -243 74.5t-90 226.5h208q0 -141 132 -141q131 0 131 141h208q-3 -151 -94.5 -226t-251.5 -75zM406 0h-216v264h132q91 0 133 22.5t71 88.5l25 57l-551 1002h336l364 -684l306 684h315l-524 -1139q-74 -162 -167 -228.5t-224 -66.5z" />
    <glyph glyph-name="uni040F" unicode="&#x40f;" horiz-adv-x="1409" 
d="M981 1434h307v-1434h-430v-293h-307v293h-428v1434h307v-1170h551v1170z" />
    <glyph glyph-name="uni0410" unicode="&#x410;" horiz-adv-x="1429" 
d="M326 0h-318l524 1434h369l520 -1434h-329l-111 313h-545zM707 1106l-189 -545h379z" />
    <glyph glyph-name="uni0411" unicode="&#x411;" horiz-adv-x="1257" 
d="M715 0h-592v1434h964v-256h-657v-301h285q231 0 366.5 -109.5t135.5 -325.5q0 -214 -136.5 -328t-365.5 -114zM430 625v-371h258q101 0 158 49t57 135q0 87 -57.5 137t-159.5 50h-256z" />
    <glyph glyph-name="uni0412" unicode="&#x412;" horiz-adv-x="1304" 
d="M123 0v1434h545q249 0 386.5 -99.5t137.5 -279.5q0 -131 -71.5 -211t-198.5 -107q150 -20 235.5 -101t85.5 -228q0 -190 -144 -299t-405 -109h-571zM676 1192h-246v-348h246q98 0 153.5 47t55.5 127t-55 127t-154 47zM696 606h-266v-362h266q110 0 171 47t61 131
q0 87 -61.5 135.5t-170.5 48.5z" />
    <glyph glyph-name="uni0413" unicode="&#x413;" horiz-adv-x="1052" 
d="M430 0h-307v1434h889v-265h-582v-1169z" />
    <glyph glyph-name="uni0414" unicode="&#x414;" horiz-adv-x="1605" 
d="M1389 1434v-1170h182v-557h-297v293h-950v-293h-297v557h129q73 55 107 181t34 397v592h1092zM485 264h596v910h-495v-371q0 -211 -23.5 -335t-77.5 -204z" />
    <glyph glyph-name="uni0415" unicode="&#x415;" horiz-adv-x="1169" 
d="M123 0v1434h962v-265h-655v-321h533v-252h-533v-332h678v-264h-985z" />
    <glyph glyph-name="uni0416" unicode="&#x416;" horiz-adv-x="2134" 
d="M379 0h-359l486 748l-459 686h338l373 -576h155v576h308v-576h155l373 576h338l-457 -686l484 -748h-359l-373 594h-161v-594h-308v594h-161z" />
    <glyph glyph-name="uni0417" unicode="&#x417;" horiz-adv-x="1267" 
d="M633 -12q-274 0 -420 119t-158 354h301q23 -230 285 -230q116 0 184 51.5t68 143.5q0 91 -62.5 134.5t-191.5 43.5h-166v240h148q243 0 243 182q0 84 -62.5 130t-172.5 46q-118 0 -187.5 -57t-83.5 -158h-295q14 205 166.5 332t405.5 127t396 -104t143 -289
q0 -126 -66 -204.5t-178 -109.5q121 -31 197.5 -112t76.5 -219q0 -196 -154.5 -308t-416.5 -112z" />
    <glyph glyph-name="uni0418" unicode="&#x418;" horiz-adv-x="1443" 
d="M401 0h-278v1434h303v-936l616 936h279v-1434h-303v936z" />
    <glyph glyph-name="uni0419" unicode="&#x419;" horiz-adv-x="1443" 
d="M719 1534q-157 0 -244 75t-90 226h209q0 -141 131 -141t131 141h209q-3 -151 -94.5 -226t-251.5 -75zM401 0h-278v1434h303v-936l616 936h279v-1434h-303v936z" />
    <glyph glyph-name="uni041A" unicode="&#x41a;" horiz-adv-x="1423" 
d="M430 0h-307v1434h307v-576h207l387 576h348l-477 -684l508 -750h-367l-395 594h-211v-594z" />
    <glyph glyph-name="uni041B" unicode="&#x41b;" horiz-adv-x="1456" 
d="M90 0h-74v264h39q69 0 109.5 37.5t63 140t22.5 283.5v709h1085v-1434h-307v1169h-487v-471q0 -256 -49 -410t-146.5 -221t-255.5 -67z" />
    <glyph glyph-name="uni041C" unicode="&#x41c;" horiz-adv-x="1826" 
d="M123 0v1434h403l398 -1053l385 1053h395v-1434h-293v961l-373 -961h-250l-372 961v-961h-293z" />
    <glyph glyph-name="uni041D" unicode="&#x41d;" horiz-adv-x="1427" 
d="M123 0v1434h307v-576h569v576h308v-1434h-308v592h-569v-592h-307z" />
    <glyph glyph-name="uni041E" unicode="&#x41e;" horiz-adv-x="1550" 
d="M1487 717q0 -207 -89 -373t-252 -261t-370 -95t-370 95t-251.5 261t-88.5 373t88.5 373t251.5 261t370 95t370 -95t252 -261t89 -373zM379 717q0 -205 109 -337t288 -132q178 0 286.5 132t108.5 337t-108.5 337t-286.5 132q-179 0 -288 -132t-109 -337z" />
    <glyph glyph-name="uni041F" unicode="&#x41f;" horiz-adv-x="1421" 
d="M430 0h-307v1434h1175v-1434h-307v1169h-561v-1169z" />
    <glyph glyph-name="uni0420" unicode="&#x420;" horiz-adv-x="1273" 
d="M123 0v1434h584q234 0 376 -130t142 -348q0 -216 -142 -345.5t-376 -129.5h-277v-481h-307zM678 1178h-248v-441h248q108 0 171.5 59t63.5 160q0 102 -63.5 162t-171.5 60z" />
    <glyph glyph-name="uni0421" unicode="&#x421;" horiz-adv-x="1433" 
d="M750 -12q-317 0 -500.5 198t-183.5 531q0 332 189 530.5t513 198.5q253 0 420.5 -144.5t195.5 -379.5h-311q-28 122 -112 193t-209 71q-172 0 -272.5 -129.5t-100.5 -339.5q0 -209 99 -339t270 -130q128 0 212.5 70.5t112.5 193.5h309q-26 -235 -198.5 -379.5
t-433.5 -144.5z" />
    <glyph glyph-name="uni0422" unicode="&#x422;" horiz-adv-x="1218" 
d="M41 1169v265h1137v-265h-416v-1169h-307v1169h-414z" />
    <glyph glyph-name="uni0423" unicode="&#x423;" horiz-adv-x="1320" 
d="M406 0h-216v264h132q91 0 133 22.5t71 88.5l25 57l-551 1002h336l364 -684l306 684h315l-524 -1139q-74 -162 -167 -228.5t-224 -66.5z" />
    <glyph glyph-name="uni0424" unicode="&#x424;" horiz-adv-x="1835" 
d="M1769 717q0 -276 -187 -440t-517 -187v-172h-295v172q-329 23 -516.5 187.5t-187.5 439.5q0 276 187.5 441t516.5 188v170h295v-170q329 -23 516.5 -188t187.5 -441zM369 717q0 -345 401 -381v762q-401 -37 -401 -381zM1065 1098v-762q203 18 302 115.5t99 265.5
t-99 265.5t-302 115.5z" />
    <glyph glyph-name="uni0425" unicode="&#x425;" horiz-adv-x="1361" 
d="M20 0l467 733l-444 701h365l278 -455l289 455h344l-445 -697l467 -737h-366l-301 492l-312 -492h-342z" />
    <glyph glyph-name="uni0426" unicode="&#x426;" horiz-adv-x="1505" 
d="M1288 1434v-1170h182v-557h-296v293h-1051v1434h307v-1170h551v1170h307z" />
    <glyph glyph-name="uni0427" unicode="&#x427;" horiz-adv-x="1341" 
d="M913 801v633h308v-1434h-308v547q-123 -60 -311 -60q-245 0 -385.5 120t-140.5 360v467h307v-428q0 -131 72 -197t202 -66q149 0 256 58z" />
    <glyph glyph-name="uni0428" unicode="&#x428;" horiz-adv-x="2076" 
d="M1954 0h-1831v1434h307v-1170h455v1170h307v-1170h455v1170h307v-1434z" />
    <glyph glyph-name="uni0429" unicode="&#x429;" horiz-adv-x="2170" 
d="M1954 1434v-1170h182v-557h-297v293h-1716v1434h307v-1170h455v1170h307v-1170h455v1170h307z" />
    <glyph glyph-name="uni042A" unicode="&#x42a;" horiz-adv-x="1581" 
d="M1006 0h-596v1174h-369v260h676v-490h289q232 0 375 -130t143 -343q0 -212 -143 -341.5t-375 -129.5zM717 686v-430h260q107 0 170 58.5t63 156.5q0 99 -63.5 157t-169.5 58h-260z" />
    <glyph glyph-name="uni042B" unicode="&#x42b;" horiz-adv-x="1804" 
d="M700 0h-577v1434h307v-490h270q235 0 379 -130t144 -343q0 -212 -144 -341.5t-379 -129.5zM1683 0h-307v1434h307v-1434zM430 686v-430h244q107 0 171 58.5t64 156.5q0 99 -64 157t-173 58h-242z" />
    <glyph glyph-name="uni042C" unicode="&#x42c;" horiz-adv-x="1294" 
d="M717 0h-594v1434h307v-490h287q233 0 375.5 -129.5t142.5 -343.5q0 -212 -142.5 -341.5t-375.5 -129.5zM430 686v-430h258q107 0 170.5 58.5t63.5 156.5q0 99 -64 157t-170 58h-258z" />
    <glyph glyph-name="uni042D" unicode="&#x42d;" horiz-adv-x="1435" 
d="M686 1446q317 0 500.5 -198t183.5 -531q0 -332 -189 -530.5t-513 -198.5q-253 0 -419 140.5t-200 369.5h311q29 -116 112.5 -185t211.5 -69q150 0 246.5 93.5t122.5 260.5h-498v246h496q-26 164 -120 255t-239 91q-131 0 -214 -69t-111 -185h-312q34 229 204 369.5
t427 140.5z" />
    <glyph glyph-name="uni042E" unicode="&#x42e;" horiz-adv-x="2101" 
d="M1337 1446q206 0 366.5 -95t247.5 -260.5t87 -373.5t-87 -373.5t-247.5 -260.5t-366.5 -95q-277 0 -464 167.5t-226 436.5h-217v-592h-307v1434h307v-580h219q42 264 228 428t460 164zM1337 248q176 0 280.5 131.5t104.5 337.5t-104.5 337.5t-280.5 131.5
q-174 0 -278.5 -131.5t-104.5 -337.5t104.5 -337.5t278.5 -131.5z" />
    <glyph glyph-name="uni042F" unicode="&#x42f;" horiz-adv-x="1329" 
d="M612 1434h596v-1434h-307v485h-225l-273 -485h-356l318 532q-133 54 -207 166t-74 263q0 213 145.5 343t382.5 130zM633 743h268v435h-266q-110 0 -175 -58.5t-65 -158.5t64.5 -159t173.5 -59z" />
    <glyph glyph-name="uni0430" unicode="&#x430;" horiz-adv-x="1148" 
d="M1104 244h33v-244h-148q-106 0 -151 45.5t-43 126.5q-116 -184 -344 -184q-175 0 -283.5 81t-108.5 228q0 168 124.5 259t359.5 91h209v51q0 72 -50 114t-139 42q-84 0 -138 -35t-63 -94h-278q15 154 147 247t340 93q223 0 344 -98t121 -285v-373q0 -39 16 -52t52 -13z
M752 434v21h-211q-91 0 -141 -36t-50 -102q0 -55 42 -87.5t114 -32.5q113 0 178.5 64.5t67.5 172.5z" />
    <glyph glyph-name="uni0431" unicode="&#x431;" horiz-adv-x="1222" 
d="M686 967q211 0 344 -128t133 -350t-148.5 -361.5t-408.5 -139.5q-257 0 -396.5 154t-139.5 472q0 197 30 331.5t102 231.5t190.5 149.5t297.5 74.5l377 45v-250l-313 -39q-119 -14 -193 -34.5t-126 -60t-78 -97t-42 -150.5q120 152 371 152zM614 207q115 0 185.5 75.5
t70.5 194.5q0 117 -69.5 192.5t-182.5 75.5q-116 0 -186 -73t-70 -187q0 -124 69.5 -201t182.5 -77z" />
    <glyph glyph-name="uni0432" unicode="&#x432;" horiz-adv-x="1105" 
d="M582 0h-482v1053h471q216 0 328.5 -71.5t112.5 -205.5q0 -190 -203 -231q238 -32 238 -244q0 -153 -115.5 -227t-349.5 -74zM379 854v-229h190q74 0 113 29.5t39 84.5q0 115 -152 115h-190zM379 436v-237h217q160 0 160 118q0 57 -41.5 88t-118.5 31h-217z" />
    <glyph glyph-name="uni0433" unicode="&#x433;" horiz-adv-x="843" 
d="M389 0h-289v1053h727v-244h-438v-809z" />
    <glyph glyph-name="uni0434" unicode="&#x434;" horiz-adv-x="1331" 
d="M1135 1053v-809h174v-520h-279v276h-737v-276h-279v520h113q57 33 81.5 111.5t24.5 271.5v426h902zM438 244h408v565h-344v-215q0 -243 -64 -350z" />
    <glyph glyph-name="uni0435" unicode="&#x435;" horiz-adv-x="1189" 
d="M621 -12q-261 0 -411.5 145t-150.5 391t148 393.5t393 147.5q237 0 383.5 -137.5t149.5 -368.5q0 -48 -9 -98h-764v-15q4 -112 71 -175.5t177 -63.5q89 0 146.5 38t76.5 111h285q-26 -160 -158.5 -264t-336.5 -104zM367 649h475q-15 96 -78 148.5t-162 52.5
q-95 0 -159 -54t-76 -147z" />
    <glyph glyph-name="uni0436" unicode="&#x436;" horiz-adv-x="1660" 
d="M317 0h-323l348 553l-326 500h306l258 -400h108v400h283v-400h110l256 400h308l-326 -500l348 -553h-324l-258 410h-114v-410h-283v410h-113z" />
    <glyph glyph-name="uni0437" unicode="&#x437;" horiz-adv-x="1103" 
d="M823 545q224 -40 224 -238q0 -148 -136.5 -233.5t-371.5 -85.5q-247 0 -360.5 93t-121.5 275h285q22 -163 201 -163q99 0 154 33t55 93q0 58 -39.5 84.5t-122.5 26.5h-146v201h129q158 0 158 117q0 54 -46 83t-132 29q-183 0 -205 -151h-285q11 163 140 259.5t356 96.5
q222 0 343.5 -78.5t121.5 -214.5q0 -92 -53.5 -149t-147.5 -78z" />
    <glyph glyph-name="uni0438" unicode="&#x438;" horiz-adv-x="1226" 
d="M352 0h-252v1053h279v-650l495 650h252v-1053h-280v649z" />
    <glyph glyph-name="uni0439" unicode="&#x439;" horiz-adv-x="1226" 
d="M608 1153q-157 0 -244 75t-90 226h209q0 -141 131 -141t131 141h209q-3 -151 -94.5 -226t-251.5 -75zM352 0h-252v1053h279v-650l495 650h252v-1053h-280v649z" />
    <glyph glyph-name="uni043A" unicode="&#x43a;" horiz-adv-x="1155" 
d="M389 0h-289v1053h289v-400h164l268 400h316l-338 -498l364 -555h-334l-274 410h-166v-410z" />
    <glyph glyph-name="uni043B" unicode="&#x43b;" horiz-adv-x="1175" 
d="M96 0h-90v244h43q50 0 78 26t42.5 93t14.5 188v502h891v-1053h-289v809h-333v-268q0 -155 -22 -260t-68 -167t-110.5 -88t-156.5 -26z" />
    <glyph glyph-name="uni043C" unicode="&#x43c;" horiz-adv-x="1501" 
d="M362 0h-262v1053h340l322 -736l307 736h332v-1053h-262v635l-279 -635h-219l-279 635v-635z" />
    <glyph glyph-name="uni043D" unicode="&#x43d;" horiz-adv-x="1216" 
d="M827 653v400h289v-1053h-289v410h-438v-410h-289v1053h289v-400h438z" />
    <glyph glyph-name="uni043E" unicode="&#x43e;" 
d="M614 -12q-252 0 -403.5 147.5t-151.5 390.5t151.5 391t403.5 148t403.5 -148t151.5 -391q0 -244 -151.5 -391t-403.5 -147zM614 223q120 0 191.5 84t71.5 219t-71.5 219t-191.5 84t-190 -84t-70 -219t70 -219t190 -84z" />
    <glyph glyph-name="uni043F" unicode="&#x43f;" horiz-adv-x="1196" 
d="M389 0h-289v1053h996v-1053h-289v809h-418v-809z" />
    <glyph glyph-name="uni0440" unicode="&#x440;" horiz-adv-x="1253" 
d="M705 1065q216 2 352.5 -146.5t136.5 -394.5q0 -243 -136 -389.5t-351 -146.5q-203 0 -318 145v-543h-289v1463h252l29 -146q119 158 324 158zM641 223q118 0 189 84.5t71 220.5q0 134 -71 217.5t-189 83.5q-117 0 -186.5 -83t-69.5 -218q0 -136 69.5 -220.5t186.5 -84.5z
" />
    <glyph glyph-name="uni0441" unicode="&#x441;" horiz-adv-x="1165" 
d="M596 -12q-250 0 -393.5 144.5t-143.5 393.5q0 245 148.5 392t398.5 147q212 0 343.5 -108t162.5 -298h-301q-19 80 -72.5 125t-136.5 45q-113 0 -180.5 -84t-67.5 -219q0 -136 67.5 -219.5t180.5 -83.5q84 0 139 46.5t70 127.5h303q-31 -190 -167.5 -299.5t-350.5 -109.5
z" />
    <glyph glyph-name="uni0442" unicode="&#x442;" horiz-adv-x="980" 
d="M635 0h-289v809h-332v244h951v-244h-330v-809z" />
    <glyph glyph-name="uni0443" unicode="&#x443;" horiz-adv-x="1118" 
d="M403 -6l-405 1059h307l256 -750l250 750h309l-467 -1203q-28 -73 -49.5 -115.5t-54 -78.5t-75 -51t-103.5 -15h-281v244h160q55 0 80 18t47 72z" />
    <glyph glyph-name="uni0444" unicode="&#x444;" horiz-adv-x="1583" 
d="M934 -410h-285v402q-277 12 -433.5 154t-156.5 380q0 235 158.5 379t431.5 156v340h285v-340q275 -12 432.5 -154.5t157.5 -380.5q0 -235 -158.5 -378.5t-431.5 -155.5v-402zM651 227v598q-145 -7 -224 -86t-79 -213t79 -213t224 -86zM930 825v-598q147 7 226 86t79 213
t-79 213t-226 86z" />
    <glyph glyph-name="uni0445" unicode="&#x445;" horiz-adv-x="1105" 
d="M-6 0l391 537l-373 516h330l217 -312l223 312h312l-371 -516l391 -537h-330l-241 330l-240 -330h-309z" />
    <glyph glyph-name="uni0446" unicode="&#x446;" horiz-adv-x="1280" 
d="M1079 1053v-809h178v-520h-278v276h-879v1053h289v-809h402v809h288z" />
    <glyph glyph-name="uni0447" unicode="&#x447;" horiz-adv-x="1118" 
d="M731 596v457h289v-1053h-289v371q-115 -56 -258 -56q-208 0 -315 98.5t-107 317.5v322h289v-293q0 -110 48 -156.5t159 -46.5q107 0 184 39z" />
    <glyph glyph-name="uni0448" unicode="&#x448;" horiz-adv-x="1708" 
d="M1608 0h-1508v1053h289v-809h320v809h288v-809h322v809h289v-1053z" />
    <glyph glyph-name="uni0449" unicode="&#x449;" horiz-adv-x="1808" 
d="M1608 1053v-809h178v-520h-279v276h-1407v1053h289v-809h320v809h288v-809h322v809h289z" />
    <glyph glyph-name="uni044A" unicode="&#x44a;" horiz-adv-x="1300" 
d="M588 743h231q203 0 317.5 -98.5t114.5 -273.5q0 -172 -115 -271.5t-317 -99.5h-520v809h-285v244h574v-310zM588 217h182q90 0 138 40.5t48 115.5t-47.5 115t-138.5 40h-182v-311z" />
    <glyph glyph-name="uni044B" unicode="&#x44b;" horiz-adv-x="1558" 
d="M606 0h-506v1053h289v-310h217q201 0 315.5 -98.5t114.5 -273.5q0 -172 -114.5 -271.5t-315.5 -99.5zM1458 0h-289v1053h289v-1053zM389 528v-311h166q92 0 140 40.5t48 115.5t-48 115t-140 40h-166z" />
    <glyph glyph-name="uni044C" unicode="&#x44c;" horiz-adv-x="1101" 
d="M623 0h-523v1053h289v-310h234q201 0 315.5 -98.5t114.5 -273.5q0 -172 -114.5 -271.5t-315.5 -99.5zM389 528v-311h182q91 0 140 40.5t49 115.5t-49 115t-140 40h-182z" />
    <glyph glyph-name="uni044D" unicode="&#x44d;" horiz-adv-x="1175" 
d="M573 1065q252 0 397.5 -145t145.5 -394q0 -247 -149.5 -392.5t-403.5 -145.5q-220 0 -351 107t-161 298h291q35 -176 227 -176q97 0 160.5 55t85.5 156h-338v203h336q-22 96 -86 150.5t-158 54.5q-89 0 -147.5 -45.5t-77.5 -126.5h-293q29 187 169 294t353 107z" />
    <glyph glyph-name="uni044E" unicode="&#x44e;" horiz-adv-x="1714" 
d="M1106 1065q250 0 399.5 -147t149.5 -392q0 -244 -149.5 -391t-399.5 -147q-215 0 -358 114.5t-177 309.5h-182v-412h-289v1053h289v-406h182q35 193 178 305.5t357 112.5zM1106 219q117 0 185.5 84.5t68.5 222.5t-68.5 223t-185.5 85q-116 0 -184 -85t-68 -223t68 -222.5
t184 -84.5z" />
    <glyph glyph-name="uni044F" unicode="&#x44f;" horiz-adv-x="1128" 
d="M516 1053h512v-1053h-289v326h-194l-199 -326h-326l250 373q-103 32 -157 112.5t-54 200.5q0 171 120 269t337 98zM522 543h217v293h-217q-81 0 -125.5 -39t-44.5 -107q0 -72 44 -109.5t126 -37.5z" />
    <glyph glyph-name="uni0450" unicode="&#x450;" horiz-adv-x="1189" 
d="M483 1159l-256 295h330l143 -295h-217zM621 -12q-261 0 -411.5 145t-150.5 391t148 393.5t393 147.5q237 0 383.5 -137.5t149.5 -368.5q0 -48 -9 -98h-764v-15q4 -112 71 -175.5t177 -63.5q89 0 146.5 38t76.5 111h285q-26 -160 -158.5 -264t-336.5 -104zM367 649h475
q-15 96 -78 148.5t-162 52.5q-95 0 -159 -54t-76 -147z" />
    <glyph glyph-name="uni0451" unicode="&#x451;" horiz-adv-x="1189" 
d="M231 1329q0 64 44.5 107t109.5 43q66 0 111 -43t45 -107q0 -63 -45 -106t-111 -43q-65 0 -109.5 43t-44.5 106zM657 1329q0 64 44.5 107t109.5 43q66 0 110 -43t44 -107q0 -63 -44 -106t-110 -43q-65 0 -109.5 43t-44.5 106zM621 -12q-261 0 -411.5 145t-150.5 391
t148 393.5t393 147.5q237 0 383.5 -137.5t149.5 -368.5q0 -48 -9 -98h-764v-15q4 -112 71 -175.5t177 -63.5q89 0 146.5 38t76.5 111h285q-26 -160 -158.5 -264t-336.5 -104zM367 649h475q-15 96 -78 148.5t-162 52.5q-95 0 -159 -54t-76 -147z" />
    <glyph glyph-name="uni0452" unicode="&#x452;" horiz-adv-x="1222" 
d="M717 1065q68 0 127 -14.5t114.5 -50t95 -90.5t63.5 -141.5t24 -197.5v-661q0 -149 -78.5 -234.5t-226.5 -85.5h-191v244h103q53 0 78.5 28t25.5 89v608q0 130 -53.5 199t-159.5 69q-112 0 -174 -75.5t-62 -210.5v-541h-288v1145h-156v184h156v105h288v-105h312v-184h-312
v-221q117 141 314 141z" />
    <glyph glyph-name="uni0453" unicode="&#x453;" horiz-adv-x="843" 
d="M557 1165h-211l150 289h329zM389 0h-289v1053h727v-244h-438v-809z" />
    <glyph glyph-name="uni0454" unicode="&#x454;" horiz-adv-x="1175" 
d="M606 217q91 -4 148.5 42t76.5 132h293q-29 -190 -168 -296.5t-354 -106.5q-252 0 -397.5 144t-145.5 394q0 245 150 392t403 147q219 0 350.5 -107.5t161.5 -293.5h-290q-18 81 -77 126.5t-151 45.5q-96 0 -160 -56t-86 -155h336v-201h-336q22 -99 86 -153t160 -54z" />
    <glyph glyph-name="uni0455" unicode="&#x455;" horiz-adv-x="1085" 
d="M51 350h275q8 -71 68 -113t163 -42q92 0 143.5 28.5t51.5 83.5q0 56 -50 78q-36 16 -172 34h-1l-1 1h-1h-1h-1h-1h-1h-1l-1 1h-1h-1h-1h-1h-1h-1l-1 1h-1h-1h-2q-81 10 -140.5 22t-118.5 34t-95.5 53.5t-59 80t-22.5 111.5q0 156 124.5 251t327.5 93q215 0 348.5 -90.5
t143.5 -249.5h-277q-6 63 -61 99t-143 36q-86 0 -136.5 -28.5t-50.5 -79.5q0 -19 6.5 -33.5t22 -25t32 -17.5t47.5 -12.5t56 -9t69 -8.5q6 -1 9 -1q81 -8 140 -19.5t119 -34.5t98 -56t61.5 -85.5t23.5 -121.5q0 -156 -132.5 -249t-346.5 -93q-221 0 -358 97t-146 265z" />
    <glyph glyph-name="uni0456" unicode="&#x456;" horiz-adv-x="489" 
d="M246 1165q-71 0 -119.5 46.5t-48.5 115.5q0 70 48.5 117t119.5 47t119.5 -47t48.5 -117q0 -69 -48.5 -115.5t-119.5 -46.5zM100 0v1053h291v-1053h-291z" />
    <glyph glyph-name="uni0457" unicode="&#x457;" horiz-adv-x="489" 
d="M-121 1329q0 64 44.5 107t109.5 43q66 0 110.5 -43t44.5 -107q0 -63 -44.5 -106t-110.5 -43q-65 0 -109.5 43t-44.5 106zM305 1329q0 64 44.5 107t109.5 43q66 0 109.5 -42.5t43.5 -107.5q0 -63 -43.5 -106t-109.5 -43q-65 0 -109.5 43t-44.5 106zM100 0v1053h291v-1053
h-291z" />
    <glyph glyph-name="uni0458" unicode="&#x458;" horiz-adv-x="499" 
d="M256 1165q-71 0 -119.5 46.5t-48.5 115.5q0 70 48.5 117t119.5 47t119.5 -47t48.5 -117q0 -69 -48.5 -115.5t-119.5 -46.5zM-94 -410v244h100q54 0 79.5 28t25.5 89v1102h288v-1143q0 -149 -77.5 -234.5t-225.5 -85.5h-190z" />
    <glyph glyph-name="uni0459" unicode="&#x459;" horiz-adv-x="1742" 
d="M98 0h-92v240h51q68 0 98.5 39.5t30.5 138.5v635h877v-346h229q189 0 295.5 -94t106.5 -261q0 -165 -106.5 -258.5t-295.5 -93.5h-518v813h-321v-414q0 -214 -87.5 -306.5t-267.5 -92.5zM1063 489v-272h178q78 0 119 34.5t41 100.5q0 67 -41 102t-119 35h-178z" />
    <glyph glyph-name="uni045A" unicode="&#x45a;" horiz-adv-x="1775" 
d="M1098 698h229q189 0 294 -92t105 -258q0 -163 -105.5 -255.5t-293.5 -92.5h-520v442h-418v-442h-289v1053h289v-367h418v367h291v-355zM1098 217h176q160 0 160 133q0 65 -41 99t-119 34h-176v-266z" />
    <glyph glyph-name="uni045B" unicode="&#x45b;" horiz-adv-x="1222" 
d="M715 1065q68 0 127.5 -14.5t115.5 -50t95.5 -90.5t63.5 -141.5t24 -197.5v-571h-289v559q0 130 -53.5 199t-159.5 69q-112 0 -174 -75.5t-62 -210.5v-541h-288v1145h-156v184h156v105h288v-105h312v-184h-312v-221q117 141 312 141z" />
    <glyph glyph-name="uni045C" unicode="&#x45c;" horiz-adv-x="1155" 
d="M696 1165h-211l150 289h330zM389 0h-289v1053h289v-400h164l268 400h316l-338 -498l364 -555h-334l-274 410h-166v-410z" />
    <glyph glyph-name="uni045E" unicode="&#x45e;" horiz-adv-x="1118" 
d="M549 1153q-157 0 -244 75t-90 226h209q0 -141 131 -141t131 141h209q-3 -151 -94.5 -226t-251.5 -75zM403 -6l-405 1059h307l256 -750l250 750h309l-467 -1203q-28 -73 -49.5 -115.5t-54 -78.5t-75 -51t-103.5 -15h-281v244h160q55 0 80 18t47 72z" />
    <glyph glyph-name="uni045F" unicode="&#x45f;" horiz-adv-x="1179" 
d="M791 1053h288v-1053h-344v-276h-289v276h-346v1053h289v-809h402v809z" />
    <glyph glyph-name="uni0490" unicode="&#x490;" horiz-adv-x="1099" 
d="M762 1434v288h297v-553h-629v-1169h-307v1434h639z" />
    <glyph glyph-name="uni0491" unicode="&#x491;" horiz-adv-x="878" 
d="M586 1053v280h276v-526h-276v2h-197v-809h-289v1053h486z" />
    <glyph glyph-name="uni0E3F" unicode="&#xe3f;" horiz-adv-x="1329" 
d="M1268 403q0 -185 -138.5 -292t-392.5 -111v-199h-174v199h-440v1434h440v211h174v-211q232 -9 356 -107t124 -270q0 -133 -74 -215t-209 -107q158 -21 246 -102.5t88 -229.5zM563 1192h-133v-348h133v348zM915 1018q0 76 -46 122t-132 52v-348q86 6 132 52t46 122z
M430 606v-362h133v362h-133zM737 606v-362q102 4 158.5 51.5t56.5 126.5q0 83 -57.5 131t-157.5 53z" />
    <glyph glyph-name="Wgrave" unicode="&#x1e80;" horiz-adv-x="2011" 
d="M887 1540l-256 295h330l143 -295h-217zM408 0l-400 1434l320 2l264 -1049l280 1047h277l272 -1047l271 1047h311l-399 -1434h-353l-250 952l-241 -952h-352z" />
    <glyph glyph-name="wgrave" unicode="&#x1e81;" horiz-adv-x="1677" 
d="M729 1159l-256 295h330l143 -295h-217zM344 0l-344 1053h305l211 -742l199 742h260l192 -744l215 744h295l-346 -1053h-307l-184 635l-189 -635h-307z" />
    <glyph glyph-name="Wacute" unicode="&#x1e82;" horiz-adv-x="2011" 
d="M1112 1546h-211l150 289h329zM408 0l-400 1434l320 2l264 -1049l280 1047h277l272 -1047l271 1047h311l-399 -1434h-353l-250 952l-241 -952h-352z" />
    <glyph glyph-name="wacute" unicode="&#x1e83;" horiz-adv-x="1677" 
d="M954 1165h-211l150 289h330zM344 0l-344 1053h305l211 -742l199 742h260l192 -744l215 744h295l-346 -1053h-307l-184 635l-189 -635h-307z" />
    <glyph glyph-name="Wdieresis" unicode="&#x1e84;" horiz-adv-x="2011" 
d="M635 1710q0 64 44 107t109 43q66 0 111 -43t45 -107q0 -63 -45 -106t-111 -43q-65 0 -109 43t-44 106zM1061 1710q0 64 44 107t109 43q66 0 110 -43t44 -107q0 -63 -44 -106t-110 -43q-65 0 -109 43t-44 106zM408 0l-400 1434l320 2l264 -1049l280 1047h277l272 -1047
l271 1047h311l-399 -1434h-353l-250 952l-241 -952h-352z" />
    <glyph glyph-name="wdieresis" unicode="&#x1e85;" horiz-adv-x="1677" 
d="M477 1329q0 64 44.5 107t109.5 43q66 0 110.5 -43t44.5 -107q0 -63 -44.5 -106t-110.5 -43q-65 0 -109.5 43t-44.5 106zM903 1329q0 64 44.5 107t109.5 43q66 0 109.5 -42.5t43.5 -107.5q0 -63 -43.5 -106t-109.5 -43q-65 0 -109.5 43t-44.5 106zM344 0l-344 1053h305
l211 -742l199 742h260l192 -744l215 744h295l-346 -1053h-307l-184 635l-189 -635h-307z" />
    <glyph glyph-name="Ygrave" unicode="&#x1ef2;" horiz-adv-x="1359" 
d="M573 1540l-256 295h330l144 -295h-218zM526 532l-526 902h358l322 -588l338 588h342l-526 -902v-532h-308v532z" />
    <glyph glyph-name="ygrave" unicode="&#x1ef3;" horiz-adv-x="1118" 
d="M440 1159l-256 295h330l143 -295h-217zM403 -6l-405 1059h307l256 -750l250 750h309l-467 -1203q-28 -73 -49.5 -115.5t-54 -78.5t-75 -51t-103.5 -15h-281v244h160q55 0 80 18t47 72z" />
    <glyph glyph-name="uni2010" unicode="&#x2010;" horiz-adv-x="880" 
d="M799 465h-717v235h717v-235z" />
    <glyph glyph-name="endash" unicode="&#x2013;" horiz-adv-x="1259" 
d="M1163 465h-1067v235h1067v-235z" />
    <glyph glyph-name="emdash" unicode="&#x2014;" horiz-adv-x="1894" 
d="M82 465v235h1730v-235h-1730z" />
    <glyph glyph-name="uni2015" unicode="&#x2015;" horiz-adv-x="1894" 
d="M82 465v235h1730v-235h-1730z" />
    <glyph glyph-name="quoteleft" unicode="&#x2018;" horiz-adv-x="507" 
d="M272 825q-96 0 -154.5 75t-58.5 194q0 170 102 260t279 92v-150q-92 0 -142 -40t-50 -99q0 -19 2 -29q34 17 65 17q59 0 98.5 -40.5t39.5 -113.5q0 -69 -52.5 -117.5t-128.5 -48.5z" />
    <glyph glyph-name="quoteright" unicode="&#x2019;" horiz-adv-x="507" 
d="M233 1446q96 0 156 -74.5t60 -193.5q0 -170 -102.5 -260.5t-280.5 -92.5v150q94 0 144 40t50 99q0 19 -2 29q-34 -17 -65 -17q-60 0 -100 40.5t-40 113.5q0 69 52.5 117.5t127.5 48.5z" />
    <glyph glyph-name="quotesinglbase" unicode="&#x201a;" horiz-adv-x="507" 
d="M233 324q96 0 156 -75t60 -194q0 -169 -102.5 -259.5t-280.5 -92.5v150q94 1 144 40.5t50 98.5q0 20 -2 28q-32 -16 -65 -16q-60 0 -100 40.5t-40 115.5q0 68 52.5 116t127.5 48z" />
    <glyph glyph-name="quotedblleft" unicode="&#x201c;" horiz-adv-x="950" 
d="M272 825q-96 0 -154.5 75t-58.5 194q0 170 102 260t279 92v-150q-92 0 -142 -40t-50 -99q0 -19 2 -29q34 17 65 17q59 0 98.5 -40.5t39.5 -113.5q0 -69 -52.5 -117.5t-128.5 -48.5zM717 825q-96 0 -155.5 75t-59.5 194q0 170 102 260t281 92v-150q-94 0 -144.5 -40
t-50.5 -99q0 -19 2 -29q34 17 66 17q60 0 99.5 -40.5t39.5 -113.5q0 -69 -52.5 -117.5t-127.5 -48.5z" />
    <glyph glyph-name="quotedblright" unicode="&#x201d;" horiz-adv-x="950" 
d="M233 1446q96 0 156 -74.5t60 -193.5q0 -170 -102.5 -260.5t-280.5 -92.5v150q94 0 144 40t50 99q0 19 -2 29q-34 -17 -65 -17q-60 0 -100 40.5t-40 113.5q0 69 52.5 117.5t127.5 48.5zM678 1446q96 0 154.5 -74.5t58.5 -193.5q0 -170 -102 -260.5t-279 -92.5v150
q92 0 142 40t50 99q0 19 -2 29q-34 -17 -65 -17q-59 0 -98 40.5t-39 113.5q0 69 52 117.5t128 48.5z" />
    <glyph glyph-name="quotedblbase" unicode="&#x201e;" horiz-adv-x="950" 
d="M233 324q96 0 156 -75t60 -194q0 -169 -102.5 -259.5t-280.5 -92.5v150q94 1 144 40.5t50 98.5q0 20 -2 28q-32 -16 -65 -16q-60 0 -100 40.5t-40 115.5q0 68 52.5 116t127.5 48zM678 324q96 0 154.5 -75t58.5 -194q0 -169 -102 -259.5t-279 -92.5v150q93 1 142.5 40.5
t49.5 98.5q0 20 -2 28q-32 -16 -65 -16q-59 0 -98 40.5t-39 115.5q0 68 52 116t128 48z" />
    <glyph glyph-name="dagger" unicode="&#x2020;" horiz-adv-x="1062" 
d="M659 1038h353v-235h-353v-803h-256v803h-352v235h352v396h256v-396z" />
    <glyph glyph-name="daggerdbl" unicode="&#x2021;" horiz-adv-x="1161" 
d="M1077 1114v-233h-366v-328h366v-234h-366v-319h-258v319h-369v234h369v328h-369v233h369v320h258v-320h366z" />
    <glyph glyph-name="bullet" unicode="&#x2022;" horiz-adv-x="921" 
d="M121 686q0 145 96.5 237.5t243.5 92.5t243.5 -92.5t96.5 -237.5t-96.5 -238.5t-243.5 -93.5t-243.5 93.5t-96.5 238.5z" />
    <glyph glyph-name="ellipsis" unicode="&#x2026;" horiz-adv-x="1474" 
d="M80 158q0 75 49.5 123.5t124.5 48.5q74 0 124 -49t50 -123q0 -73 -50 -121.5t-124 -48.5q-75 0 -124.5 48.5t-49.5 121.5zM563 158q0 75 49.5 123.5t124.5 48.5t124.5 -48.5t49.5 -123.5q0 -73 -49.5 -121.5t-124.5 -48.5t-124.5 48.5t-49.5 121.5zM1047 158q0 74 50 123
t124 49q75 0 124.5 -48.5t49.5 -123.5q0 -73 -49.5 -121.5t-124.5 -48.5q-74 0 -124 48.5t-50 121.5z" />
    <glyph glyph-name="perthousand" unicode="&#x2030;" horiz-adv-x="2736" 
d="M78 1092q0 154 107 254t270 100q162 0 268 -100.5t106 -253.5q0 -154 -106.5 -254.5t-267.5 -100.5q-163 0 -270 100.5t-107 254.5zM594 0h-285l983 1434h285zM596 1092q0 62 -40.5 103.5t-100.5 41.5q-61 0 -102.5 -41.5t-41.5 -103.5q0 -63 41 -104.5t103 -41.5
q60 0 100.5 41.5t40.5 104.5zM1057 342q0 153 106.5 253.5t268.5 100.5q163 0 268.5 -100t105.5 -254t-105.5 -254t-268.5 -100q-162 0 -268.5 100.5t-106.5 253.5zM1894 342q0 153 106.5 253.5t268.5 100.5q163 0 269 -100t106 -254t-106 -254t-269 -100
q-162 0 -268.5 100.5t-106.5 253.5zM1575 342q0 62 -41 103.5t-102 41.5q-60 0 -101 -42t-41 -103q0 -63 41 -104t101 -41q62 0 102.5 41t40.5 104zM2413 342q0 62 -41.5 103.5t-102.5 41.5q-60 0 -100.5 -41.5t-40.5 -103.5q0 -63 40.5 -104t100.5 -41q62 0 103 41t41 104z
" />
    <glyph glyph-name="second" unicode="&#x2033;" horiz-adv-x="874" 
d="M291 1053h-185l50 381h270zM668 1053h-185l49 381h271z" />
    <glyph glyph-name="guilsinglleft" unicode="&#x2039;" horiz-adv-x="686" 
d="M350 1053h289l-307 -527l307 -526h-289l-311 526z" />
    <glyph glyph-name="guilsinglright" unicode="&#x203a;" horiz-adv-x="686" 
d="M352 526l-305 527h289l311 -527l-311 -526h-289z" />
    <glyph glyph-name="uni2042" unicode="&#x2042;" horiz-adv-x="2015" 
d="M1300 1386l82 -182l-237 -84l162 -178l-152 -129l-151 215l-154 -213l-152 129l164 178l-235 86l80 181l206 -107l-8 234h197l-10 -236zM795 475l82 -182l-236 -84l162 -178l-152 -129l-153 215l-154 -213l-149 129l161 178l-233 86l80 180l207 -106l-9 233h195l-8 -235z
M1812 475l82 -182l-237 -84l162 -178l-152 -129l-151 215l-154 -213l-152 129l164 178l-235 86l80 180l206 -106l-8 233h197l-10 -235z" />
    <glyph glyph-name="fraction" unicode="&#x2044;" horiz-adv-x="401" 
d="M-137 0h-232l908 1434h231z" />
    <glyph glyph-name="uni2051" unicode="&#x2051;" horiz-adv-x="999" 
d="M795 1386l82 -182l-236 -84l162 -178l-152 -129l-153 215l-154 -213l-149 129l161 178l-233 86l80 181l207 -107l-9 234h195l-8 -236zM795 469l82 -182l-236 -84l162 -178l-152 -129l-153 215l-154 -213l-149 129l161 178l-233 86l80 180l207 -106l-9 233h195l-8 -236z
" />
    <glyph glyph-name="uni2070" unicode="&#x2070;" horiz-adv-x="712" 
d="M35 1268q0 179 85.5 282t235.5 103t236 -103t86 -282t-86 -282t-236 -103t-235.5 103t-85.5 282zM479 1268q0 99 -32.5 156t-90.5 57t-90.5 -57t-32.5 -156q0 -100 32.5 -156.5t90.5 -56.5t90.5 56.5t32.5 156.5z" />
    <glyph glyph-name="uni2074" unicode="&#x2074;" horiz-adv-x="722" 
d="M35 1225l301 413h242v-419h110v-164h-110v-162h-191v162h-352v170zM387 1219v243l-174 -243h174z" />
    <glyph glyph-name="uni2075" unicode="&#x2075;" horiz-adv-x="651" 
d="M74 1638h501v-165h-348l-8 -130q57 54 146 54q112 0 180.5 -68.5t68.5 -181.5q0 -119 -80 -192.5t-208 -73.5q-120 0 -197 65.5t-86 173.5h190q6 -31 32 -49t63 -18q39 0 64.5 26t25.5 68t-26 68t-66 26q-60 3 -88 -51h-185z" />
    <glyph glyph-name="uni2076" unicode="&#x2076;" horiz-adv-x="677" 
d="M33 1255q0 181 89.5 289.5t237.5 108.5q107 0 184.5 -62t94.5 -168h-186q-8 37 -36 59.5t-69 22.5q-62 0 -99.5 -55t-37.5 -133v-35q45 100 170 100q120 0 192 -67.5t72 -179.5q0 -114 -80.5 -183t-212.5 -69q-149 0 -234 101.5t-85 270.5zM455 1135q0 44 -28.5 72
t-74.5 28t-74 -28t-28 -72t28 -71.5t74 -27.5t74.5 27.5t28.5 71.5z" />
    <glyph glyph-name="uni2077" unicode="&#x2077;" horiz-adv-x="585" 
d="M6 1468v168h557v-155l-282 -590h-215l284 577h-344z" />
    <glyph glyph-name="uni2078" unicode="&#x2078;" horiz-adv-x="694" 
d="M35 1104q0 136 147 182q-123 52 -123 168q0 88 78 143.5t211 55.5t212 -55.5t79 -143.5q0 -64 -31.5 -102.5t-91.5 -65.5q146 -46 146 -182q0 -99 -84 -160t-230 -61q-145 0 -229 61t-84 160zM451 1430q0 36 -29 58.5t-74 22.5q-43 0 -71.5 -22.5t-28.5 -58.5t28.5 -59
t71.5 -23q46 0 74.5 22.5t28.5 59.5zM463 1120q0 40 -32 65t-83 25q-50 0 -82.5 -25t-32.5 -65q0 -37 33 -62.5t82 -25.5q50 0 82.5 25.5t32.5 62.5z" />
    <glyph glyph-name="uni2079" unicode="&#x2079;" horiz-adv-x="677" 
d="M645 1280q0 -181 -90 -289t-238 -108q-107 0 -184 61.5t-94 167.5h186q8 -37 36 -59.5t69 -22.5q63 0 100 52.5t37 136.5v34q-47 -100 -172 -100q-119 0 -190.5 68t-71.5 180q0 114 80.5 183t212.5 69q149 0 234 -102t85 -271zM223 1401q0 -44 28.5 -72.5t74.5 -28.5
t74 28t28 73q0 44 -28 71t-74 27t-74.5 -27t-28.5 -71z" />
    <glyph glyph-name="uni2080" unicode="&#x2080;" horiz-adv-x="712" 
d="M35 168q0 179 85.5 282t235.5 103t236 -103t86 -282t-86 -282t-236 -103t-235.5 103t-85.5 282zM479 168q0 99 -32.5 156t-90.5 57t-90.5 -57t-32.5 -156q0 -100 32.5 -156.5t90.5 -56.5t90.5 56.5t32.5 156.5z" />
    <glyph glyph-name="uni2081" unicode="&#x2081;" horiz-adv-x="458" 
d="M178 479v62h187v-744l-191 -2v443q-21 -7 -39 -7h-127v175h117q25 0 39 21t14 52z" />
    <glyph glyph-name="uni2082" unicode="&#x2082;" horiz-adv-x="669" 
d="M225 256h-192v14q0 127 83.5 205t209.5 78q134 0 217.5 -69.5t83.5 -182.5q0 -75 -37 -125.5t-101 -95.5l-151 -109h297v-176h-594v166l299 207q84 62 84 129q0 38 -27 61t-69 23q-47 0 -75 -30.5t-28 -88.5v-6z" />
    <glyph glyph-name="uni2083" unicode="&#x2083;" horiz-adv-x="688" 
d="M244 301h-193q3 118 81.5 185t215.5 67q132 0 208.5 -58t76.5 -149q0 -62 -35.5 -103t-89.5 -57q68 -14 106.5 -58.5t38.5 -111.5q0 -108 -83.5 -170.5t-231.5 -62.5q-150 0 -228.5 68t-80.5 198h196q3 -48 31 -75t80 -27q47 0 77.5 23t30.5 61q0 40 -28 62t-82 22h-47
v121h45q47 0 75.5 20t28.5 55t-25.5 56.5t-66.5 21.5q-46 0 -71.5 -23.5t-28.5 -64.5z" />
    <glyph glyph-name="uni2084" unicode="&#x2084;" horiz-adv-x="722" 
d="M35 127l301 414h242v-420h110v-164h-110v-162h-191v162h-352v170zM387 121v244l-174 -244h174z" />
    <glyph glyph-name="uni2085" unicode="&#x2085;" horiz-adv-x="651" 
d="M74 541h501v-166h-348l-8 -129q56 53 146 53q112 0 180.5 -68.5t68.5 -181.5q0 -119 -80 -192.5t-208 -73.5q-119 0 -196.5 66t-86.5 174h190q6 -31 32 -49.5t63 -18.5q39 0 64.5 26t25.5 68t-26 68t-66 26q-60 3 -88 -51h-185z" />
    <glyph glyph-name="uni2086" unicode="&#x2086;" horiz-adv-x="677" 
d="M33 156q0 181 89.5 289t237.5 108q107 0 184.5 -61.5t94.5 -167.5h-186q-8 37 -36 59.5t-69 22.5q-62 0 -99.5 -55.5t-37.5 -133.5v-35q46 101 170 101q120 0 192 -67.5t72 -180.5q0 -114 -80.5 -183t-212.5 -69q-149 0 -234 102t-85 271zM455 35q0 44 -28.5 72t-74.5 28
t-74 -28t-28 -72t28 -71t74 -27t74.5 27t28.5 71z" />
    <glyph glyph-name="uni2087" unicode="&#x2087;" horiz-adv-x="585" 
d="M6 373v168h557v-156l-282 -590h-215l284 578h-344z" />
    <glyph glyph-name="uni2088" unicode="&#x2088;" horiz-adv-x="694" 
d="M35 4q0 136 147 182q-123 52 -123 168q0 88 78 143.5t211 55.5t212 -55.5t79 -143.5q0 -64 -31.5 -102.5t-91.5 -65.5q146 -46 146 -182q0 -99 -84 -160t-230 -61q-145 0 -229 61t-84 160zM451 330q0 36 -29 59t-74 23q-43 0 -71.5 -23t-28.5 -59t28.5 -59t71.5 -23
q46 0 74.5 22.5t28.5 59.5zM463 20q0 40 -32 65.5t-83 25.5q-50 0 -82.5 -25.5t-32.5 -65.5q0 -37 33 -62.5t82 -25.5q50 0 82.5 25.5t32.5 62.5z" />
    <glyph glyph-name="uni2089" unicode="&#x2089;" horiz-adv-x="677" 
d="M645 180q0 -181 -90 -289t-238 -108q-107 0 -184 61.5t-94 167.5h186q8 -37 36 -59.5t69 -22.5q63 0 100 52.5t37 136.5v35q-48 -101 -172 -101q-119 0 -190.5 68t-71.5 180q0 114 80.5 183t212.5 69q149 0 234 -102t85 -271zM223 301q0 -44 28.5 -72t74.5 -28t74 28
t28 72t-28 71t-74 27t-74.5 -27t-28.5 -71z" />
    <glyph glyph-name="franc" unicode="&#x20a3;" horiz-adv-x="1161" 
d="M1118 1434v-265h-641v-335h527v-252h-527v-174h258v-215h-258v-193h-307v193h-172v215h172v1026h948z" />
    <glyph glyph-name="uni20A8" unicode="&#x20a8;" horiz-adv-x="1314" 
d="M123 1182v252h1153l-33 -181h-323q74 -90 94 -204h231l-35 -183h-198q-19 -106 -81 -187t-157 -126l283 -553h-340l-240 481h-354v250h346q81 0 138 36.5t81 98.5h-565v183h565q-24 62 -81 97.5t-138 35.5h-346z" />
    <glyph glyph-name="Euro" unicode="&#x20ac;" horiz-adv-x="1382" 
d="M182 487h-139v181h127q-2 10 -2 51q0 27 2 43h-127v180h139q40 235 193 369.5t381 134.5q256 0 408 -142.5t169 -390.5h-305q-15 133 -82 207t-178 74q-107 0 -180 -66t-99 -186h326l-33 -180h-311v-41q0 -41 2 -53h289l-35 -181h-238q29 -120 101 -183.5t178 -63.5
q112 0 177 73t83 207h303q-17 -248 -168 -390t-405 -142q-229 0 -382.5 132.5t-193.5 366.5z" />
    <glyph glyph-name="uni20BD" unicode="&#x20bd;" horiz-adv-x="1404" 
d="M817 535h-248v-119h488v-244h-488v-172h-307v172h-205v244h205v119h-205v243h205v656h555q236 0 377 -120.5t141 -330.5q0 -209 -141 -328.5t-377 -119.5zM788 1190h-219v-412h219q108 0 171 55t63 150q0 96 -63 151.5t-171 55.5z" />
    <glyph glyph-name="uni20BF" unicode="&#x20bf;" horiz-adv-x="1318" 
d="M123 0v1434h264v213h186v-213h123v213h185v-230q155 -31 239 -124.5t84 -235.5q0 -133 -73.5 -215t-206.5 -107q158 -21 244.5 -102.5t86.5 -229.5q0 -154 -96.5 -254.5t-277.5 -132.5v-213h-185v197h-125v-197h-184v197h-264zM694 1192h-264v-348h264q98 0 150.5 46.5
t52.5 127.5t-52 127.5t-151 46.5zM707 606h-277v-362h277q110 0 171.5 47.5t61.5 130.5q0 87 -62 135.5t-171 48.5z" />
    <glyph glyph-name="uni2116" unicode="&#x2116;" horiz-adv-x="2476" 
d="M1862 465q-230 0 -368 134t-138 357q0 222 138 356t368 134t367.5 -134t137.5 -356q0 -223 -137.5 -357t-367.5 -134zM424 0h-301v1434h262l537 -854v854h303v-1434h-264l-537 854v-854zM1862 694q103 0 162 71t59 191t-59 191.5t-162 71.5t-162.5 -71.5t-59.5 -191.5
t59.5 -191t162.5 -71z" />
    <glyph glyph-name="trademark" unicode="&#x2122;" horiz-adv-x="1417" 
d="M49 1296v138h490v-138h-170v-411h-150v411h-170zM600 885v549h209l149 -359l146 359h205v-549h-146v354l-153 -354h-113l-152 354v-354h-145z" />
    <glyph glyph-name="uni2126" unicode="&#x2126;" horiz-adv-x="1497" 
d="M1401 0h-541v381q139 88 193.5 191t54.5 245q0 162 -103 266.5t-260 104.5q-155 0 -255.5 -104t-100.5 -267q0 -143 54 -245.5t194 -192.5v-379h-539v264h326v39q-95 33 -163.5 85.5t-108.5 122t-58 148.5t-18 175q0 190 86.5 329.5t237 211t345.5 71.5
q199 0 351.5 -71.5t239.5 -210.5t87 -328q0 -197 -85 -335.5t-265 -197.5v-39h328v-264z" />
    <glyph glyph-name="uni2153" unicode="&#x2153;" horiz-adv-x="1548" 
d="M178 1372v62h187v-744l-191 -2v442q-18 -6 -39 -6h-127v174h117q25 0 39 21.5t14 52.5zM322 0h-232l907 1434h232zM1104 506h-193q3 118 81.5 185t215.5 67q132 0 208.5 -58t76.5 -149q0 -62 -35.5 -103t-89.5 -57q68 -14 106.5 -58.5t38.5 -111.5q0 -108 -83.5 -170.5
t-231.5 -62.5q-150 0 -228.5 68t-80.5 198h196q3 -48 31 -75t80 -27q47 0 78 23t31 61q0 40 -28.5 61.5t-82.5 21.5h-47v121h45q46 0 75 20.5t29 55.5t-25.5 56.5t-66.5 21.5q-46 0 -71.5 -23.5t-28.5 -64.5z" />
    <glyph glyph-name="uni2155" unicode="&#x2155;" horiz-adv-x="1511" 
d="M178 1372v62h187v-744l-191 -2v442q-18 -6 -39 -6h-127v174h117q25 0 39 21.5t14 52.5zM322 0h-232l907 1434h232zM934 745h502v-165h-349l-8 -129q56 53 146 53q113 0 181.5 -69t68.5 -181q0 -119 -80.5 -192.5t-208.5 -73.5q-120 0 -197 65.5t-86 173.5h191
q6 -31 31.5 -49t62.5 -18q39 0 64.5 26t25.5 68t-26 68t-66 26q-60 3 -88 -51h-185z" />
    <glyph glyph-name="uni2156" unicode="&#x2156;" horiz-adv-x="1722" 
d="M225 1149h-192v14q0 127 83.5 205t209.5 78q134 0 217.5 -69.5t83.5 -182.5q0 -75 -37 -125.5t-101 -95.5l-151 -109h297v-176h-594v166l299 207q84 62 84 129q0 38 -27 61t-69 23q-47 0 -75 -30.5t-28 -88.5v-6zM532 0h-231l907 1434h232zM1145 745h502v-165h-349
l-8 -129q56 53 146 53q112 0 181 -69t69 -181q0 -119 -80.5 -192.5t-208.5 -73.5q-120 0 -197 65.5t-86 173.5h191q6 -31 31.5 -49t62.5 -18q39 0 64.5 26t25.5 68t-26 68t-66 26q-60 3 -88 -51h-185z" />
    <glyph glyph-name="uni2157" unicode="&#x2157;" horiz-adv-x="1740" 
d="M244 1196h-193q3 118 81.5 185t215.5 67q132 0 208.5 -58t76.5 -149q0 -62 -35.5 -103t-89.5 -57q68 -14 106.5 -58.5t38.5 -111.5q0 -108 -83.5 -170.5t-231.5 -62.5q-150 0 -228.5 68t-80.5 198h196q3 -48 31 -75t80 -27q47 0 77.5 23t30.5 61q0 40 -28 62t-82 22h-47
v120h45q46 0 75 20.5t29 55.5t-25.5 56.5t-66.5 21.5q-46 0 -71.5 -23.5t-28.5 -64.5zM551 0h-232l908 1434h231zM1163 745h502v-165h-348l-8 -129q56 53 145 53q112 0 181 -69t69 -181q0 -119 -80.5 -192.5t-208.5 -73.5q-119 0 -196 65.5t-86 173.5h190q6 -31 31.5 -49
t62.5 -18q39 0 64.5 26t25.5 68t-26 68t-66 26q-60 3 -88 -51h-184z" />
    <glyph glyph-name="uni2158" unicode="&#x2158;" horiz-adv-x="1775" 
d="M35 1020l301 414h242v-420h110v-164h-110v-162h-191v162h-352v170zM586 0h-232l908 1434h231zM387 1014v243l-174 -243h174zM1198 745h502v-165h-348l-9 -129q56 53 146 53q113 0 181.5 -69t68.5 -181q0 -119 -80.5 -192.5t-208.5 -73.5q-120 0 -197 65.5t-86 173.5h191
q6 -31 31.5 -49t62.5 -18q39 0 64.5 26t25.5 68t-26 68t-66 26q-60 3 -88 -51h-184z" />
    <glyph glyph-name="uni2159" unicode="&#x2159;" horiz-adv-x="1538" 
d="M178 1372v62h187v-744l-191 -2v442q-18 -6 -39 -6h-127v174h117q25 0 39 21.5t14 52.5zM322 0h-232l907 1434h232zM893 360q0 181 90 289.5t238 108.5q107 0 184 -61.5t94 -168.5h-186q-8 37 -36 59.5t-69 22.5q-62 0 -99.5 -55t-37.5 -133v-35q45 100 170 100
q120 0 192 -67.5t72 -179.5q0 -114 -80.5 -183t-212.5 -69q-149 0 -234 101.5t-85 270.5zM1315 240q0 44 -28.5 72t-74.5 28t-74 -28t-28 -72t28 -71.5t74 -27.5t74.5 27.5t28.5 71.5z" />
    <glyph glyph-name="oneeighth" unicode="&#x215b;" horiz-adv-x="1554" 
d="M178 1372v62h187v-744l-191 -2v442q-18 -6 -39 -6h-127v174h117q25 0 39 21.5t14 52.5zM322 0h-232l907 1434h232zM895 209q0 136 147 182q-61 26 -91.5 66t-30.5 102q0 88 77.5 143.5t210.5 55.5t212 -55.5t79 -143.5q0 -64 -31.5 -102.5t-91.5 -65.5q146 -46 146 -182
q0 -99 -84 -160t-230 -61q-145 0 -229 61t-84 160zM1311 535q0 36 -29 58.5t-74 22.5q-43 0 -71.5 -22.5t-28.5 -58.5t28.5 -59t71.5 -23q46 0 74.5 22.5t28.5 59.5zM1323 225q0 40 -32 65t-83 25q-50 0 -82 -25t-32 -65q0 -37 32.5 -62.5t81.5 -25.5q50 0 82.5 25.5
t32.5 62.5z" />
    <glyph glyph-name="threeeighths" unicode="&#x215c;" horiz-adv-x="1783" 
d="M244 1196h-193q3 118 81.5 185t215.5 67q132 0 208.5 -58t76.5 -149q0 -62 -35.5 -103t-89.5 -57q68 -14 106.5 -58.5t38.5 -111.5q0 -108 -83.5 -170.5t-231.5 -62.5q-150 0 -228.5 68t-80.5 198h196q3 -48 31 -75t80 -27q47 0 77.5 23t30.5 61q0 40 -28 62t-82 22h-47
v120h45q46 0 75 20.5t29 55.5t-25.5 56.5t-66.5 21.5q-46 0 -71.5 -23.5t-28.5 -64.5zM551 0h-232l908 1434h231zM1124 209q0 136 148 182q-123 52 -123 168q0 88 78 143.5t211 55.5t212 -55.5t79 -143.5q0 -64 -31.5 -102.5t-91.5 -65.5q145 -46 145 -182q0 -99 -83.5 -160
t-229.5 -61q-145 0 -229.5 61t-84.5 160zM1540 535q0 36 -28.5 58.5t-73.5 22.5q-43 0 -72 -22.5t-29 -58.5t29 -59t72 -23q46 0 74 22.5t28 59.5zM1552 225q0 40 -31.5 65t-82.5 25q-50 0 -82.5 -25t-32.5 -65q0 -37 33 -62.5t82 -25.5q50 0 82 25.5t32 62.5z" />
    <glyph glyph-name="fiveeighths" unicode="&#x215d;" horiz-adv-x="1746" 
d="M74 1434h501v-166h-348l-8 -129q56 53 146 53q112 0 180.5 -68.5t68.5 -181.5q0 -119 -80 -192.5t-208 -73.5q-120 0 -197 65.5t-86 173.5h190q6 -31 32 -49t63 -18q39 0 64.5 26t25.5 68t-26 68t-66 26q-60 3 -88 -51h-185zM514 0h-231l907 1434h231zM1087 209
q0 136 148 182q-123 52 -123 168q0 88 78 143.5t211 55.5t212 -55.5t79 -143.5q0 -64 -31.5 -102.5t-91.5 -65.5q145 -46 145 -182q0 -99 -83.5 -160t-229.5 -61q-145 0 -229.5 61t-84.5 160zM1503 535q0 36 -28.5 58.5t-73.5 22.5q-43 0 -72 -22.5t-29 -58.5t29 -59t72 -23
q46 0 74 22.5t28 59.5zM1516 225q0 40 -32 65t-83 25q-50 0 -82.5 -25t-32.5 -65q0 -37 33 -62.5t82 -25.5q50 0 82.5 25.5t32.5 62.5z" />
    <glyph glyph-name="seveneighths" unicode="&#x215e;" horiz-adv-x="1636" 
d="M403 0h-231l907 1434h232zM6 1264v168h557v-156l-282 -590h-215l284 578h-344zM977 209q0 136 147 182q-123 52 -123 168q0 88 78 143.5t211 55.5t212 -55.5t79 -143.5q0 -64 -31.5 -102.5t-91.5 -65.5q146 -46 146 -182q0 -99 -84 -160t-230 -61q-145 0 -229 61t-84 160
zM1393 535q0 36 -29 58.5t-74 22.5q-43 0 -71.5 -22.5t-28.5 -58.5t28.5 -59t71.5 -23q46 0 74.5 22.5t28.5 59.5zM1405 225q0 40 -32 65t-83 25q-50 0 -82 -25t-32 -65q0 -37 32.5 -62.5t81.5 -25.5q50 0 82.5 25.5t32.5 62.5z" />
    <glyph glyph-name="arrowleft" unicode="&#x2190;" horiz-adv-x="1335" 
d="M59 596l617 616l178 -178l-319 -307l710 2v-264h-708l317 -307l-178 -178z" />
    <glyph glyph-name="arrowup" unicode="&#x2191;" horiz-adv-x="1351" 
d="M807 70h-262v708l-307 -317l-179 178l617 614l614 -614l-176 -178l-307 317v-708z" />
    <glyph glyph-name="arrowright" unicode="&#x2192;" horiz-adv-x="1335" 
d="M1276 596l-617 -616l-176 178l318 307l-711 -2v262h709l-316 307l176 180z" />
    <glyph glyph-name="arrowdown" unicode="&#x2193;" horiz-adv-x="1351" 
d="M545 520v707h262v-707l307 316l176 -177l-614 -616l-617 616l179 177z" />
    <glyph glyph-name="arrowboth" unicode="&#x2194;" horiz-adv-x="1849" 
d="M827 211l-190 -191l-578 576l578 575l190 -190l-264 -254h723l-264 254l190 190l578 -575l-578 -576l-190 191l264 254h-723z" />
    <glyph glyph-name="arrowupdn" unicode="&#x2195;" horiz-adv-x="1191" 
d="M1133 465l-539 -537l-535 537l179 176l225 -238v611l-225 -238l-179 176l537 537l537 -537l-179 -176l-227 238v-611l227 238z" />
    <glyph glyph-name="uni2196" unicode="&#x2196;" horiz-adv-x="1097" 
d="M520 866l516 -516l-186 -186l-514 516l6 -442h-252v872h873v-250z" />
    <glyph glyph-name="uni2197" unicode="&#x2197;" horiz-adv-x="1095" 
d="M762 682l-516 -518l-187 186l516 516l-442 -6v250h873v-870h-250z" />
    <glyph glyph-name="uni2198" unicode="&#x2198;" horiz-adv-x="1097" 
d="M578 410l-519 516l187 186l516 -516l-6 442h250v-872h-871v252z" />
    <glyph glyph-name="uni2199" unicode="&#x2199;" horiz-adv-x="1095" 
d="M334 594l516 516l186 -184l-516 -516l443 6v-252h-873v872h250z" />
    <glyph glyph-name="partialdiff" unicode="&#x2202;" horiz-adv-x="1243" 
d="M70 475q0 89 26.5 165.5t72 130t106 91.5t130 56t142.5 18q202 0 301 -96q-22 72 -65 128.5t-115.5 104t-182.5 78.5t-256 45v250q192 -3 350 -52t266.5 -131t183 -194.5t108.5 -240t34 -269.5q0 -119 -34.5 -221.5t-102 -181t-176 -123.5t-246.5 -45q-245 0 -393.5 137
t-148.5 350zM612 219q118 0 189 72t71 190q0 111 -73 178.5t-187 67.5q-110 0 -178.5 -70.5t-68.5 -183.5t68.5 -183.5t178.5 -70.5z" />
    <glyph glyph-name="emptyset" unicode="&#x2205;" horiz-adv-x="1277" 
d="M1194 1143l-88 -86q106 -137 106 -326q0 -236 -161 -387t-412 -151q-187 0 -332 90l-88 -86l-137 135l84 82q-100 137 -100 317q0 235 161.5 387t411.5 152q183 0 324 -86l94 92zM358 731q0 -58 19 -113l391 377q-60 31 -129 31q-121 0 -201 -83.5t-80 -211.5zM639 434
q121 0 201 84.5t80 212.5q0 62 -23 123l-397 -385q62 -35 139 -35z" />
    <glyph glyph-name="uni2206" unicode="&#x2206;" horiz-adv-x="1454" 
d="M1403 0h-1352v203l500 1231h354l498 -1231v-203zM715 1137l-332 -873h670z" />
    <glyph glyph-name="product" unicode="&#x220f;" horiz-adv-x="1513" 
d="M49 1434h1413v-265h-155v-1386h-308v1386h-487v-1386h-307v1386h-156v265z" />
    <glyph glyph-name="summation" unicode="&#x2211;" horiz-adv-x="1284" 
d="M68 -217v244l553 610l-515 553v244h1080v-263h-684l405 -434v-194l-458 -500h753v-260h-1134z" />
    <glyph glyph-name="minus" unicode="&#x2212;" horiz-adv-x="1054" 
d="M969 461h-883v244h883v-244z" />
    <glyph glyph-name="radical" unicode="&#x221a;" horiz-adv-x="1280" 
d="M512 0l-303 672l-90 -45l-96 213l333 159l281 -645l340 1080h280l-458 -1434h-287z" />
    <glyph glyph-name="infinity" unicode="&#x221e;" horiz-adv-x="1730" 
d="M1255 162q-113 0 -201.5 51t-191.5 188q-103 -136 -192 -187.5t-201 -51.5q-99 0 -180 37.5t-131.5 100.5t-77.5 142t-27 166q0 69 16.5 134.5t51 122.5t83.5 100t117 67.5t148 24.5q112 0 201.5 -51.5t191.5 -186.5q103 136 192 187t201 51q99 0 180 -37.5t132 -101
t78.5 -143.5t27.5 -167q0 -86 -27.5 -165.5t-78.5 -142.5t-132 -100.5t-180 -37.5zM483 420q58 0 109.5 41t124.5 147q-73 107 -125 149t-109 42q-81 0 -126.5 -52.5t-45.5 -138.5q0 -87 45 -137.5t127 -50.5zM1008 608q73 -105 124.5 -146.5t108.5 -41.5q82 0 127 50.5
t45 137.5q0 86 -45.5 138.5t-126.5 52.5q-57 0 -108.5 -42t-124.5 -149z" />
    <glyph glyph-name="integral" unicode="&#x222b;" horiz-adv-x="831" 
d="M49 -217v244h117q54 0 79 27.5t25 88.5v959q0 158 80.5 245t237.5 87h194v-244h-118q-53 0 -79 -28t-26 -89v-958q0 -159 -79.5 -245.5t-237.5 -86.5h-193z" />
    <glyph glyph-name="approxequal" unicode="&#x2248;" horiz-adv-x="1054" 
d="M309 623h-229q0 364 262 364q61 0 112 -17t78.5 -38t60 -38t60.5 -17q92 0 92 110h230q0 -362 -262 -362q-62 0 -113 17t-78.5 37t-60 37t-60.5 17q-92 0 -92 -110zM309 147h-229q0 182 67 273.5t195 91.5q61 0 112 -17.5t78.5 -38t60 -38t60.5 -17.5q92 0 92 109h230
q0 -363 -262 -363q-62 0 -113 17t-78.5 37.5t-60 37.5t-60.5 17q-92 0 -92 -109z" />
    <glyph glyph-name="notequal" unicode="&#x2260;" horiz-adv-x="1054" 
d="M948 913v-243h-252l-65 -199h317v-242h-397l-59 -178h-287l59 178h-158v242h238l66 199h-304v243h383l56 168h286l-55 -168h172z" />
    <glyph glyph-name="lessequal" unicode="&#x2264;" horiz-adv-x="1054" 
d="M932 332l-809 336v268l809 338v-279l-488 -192l488 -193v-278zM932 0h-809v244h809v-244z" />
    <glyph glyph-name="greaterequal" unicode="&#x2265;" horiz-adv-x="1054" 
d="M123 1274l809 -338v-268l-809 -336v278l487 193l-487 192v279zM932 0h-809v244h809v-244z" />
    <glyph glyph-name="dotmath" unicode="&#x22c5;" horiz-adv-x="507" 
d="M80 582q0 75 49.5 123.5t124.5 48.5q74 0 124 -49t50 -123q0 -73 -50 -121.5t-124 -48.5q-75 0 -124.5 48.5t-49.5 121.5z" />
    <glyph glyph-name="filledbox" unicode="&#x25a0;" horiz-adv-x="1685" 
d="M123 0v1434h1442v-1434h-1442z" />
    <glyph glyph-name="uni25A1" unicode="&#x25a1;" horiz-adv-x="1681" 
d="M123 0v1434h1438v-1434h-1438zM1268 1167h-854v-899h854v899z" />
    <glyph glyph-name="uni25AF" unicode="&#x25af;" horiz-adv-x="1271" 
d="M123 0v1434h1028v-1434h-1028zM858 1167h-444v-901h444v901z" />
    <glyph glyph-name="triagup" unicode="&#x25b2;" horiz-adv-x="1720" 
d="M20 0l842 1458l838 -1458h-1680z" />
    <glyph glyph-name="uni25B3" unicode="&#x25b3;" horiz-adv-x="1720" 
d="M20 0l842 1458l838 -1458h-1680zM1239 262l-379 660l-381 -660h760z" />
    <glyph glyph-name="uni25B6" unicode="&#x25b6;" horiz-adv-x="1021" 
d="M100 -12v1048l914 -524z" />
    <glyph glyph-name="uni25B7" unicode="&#x25b7;" horiz-adv-x="1048" 
d="M100 -12v1079l940 -539zM322 707v-357l313 178z" />
    <glyph glyph-name="uni25C0" unicode="&#x25c0;" horiz-adv-x="1021" 
d="M8 512l914 524v-1048z" />
    <glyph glyph-name="uni25C1" unicode="&#x25c1;" horiz-adv-x="1048" 
d="M8 528l940 539v-1079zM412 528l315 -178v357z" />
    <glyph glyph-name="lozenge" unicode="&#x25ca;" horiz-adv-x="1329" 
d="M485 1434h359l405 -717l-405 -717h-359l-405 717zM414 717l252 -481l249 481l-249 483z" />
    <glyph glyph-name="circle" unicode="&#x25cb;" horiz-adv-x="1617" 
d="M809 1446q159 0 297.5 -54.5t236.5 -150t154.5 -231.5t56.5 -293t-56.5 -293t-154.5 -231.5t-236.5 -150t-297.5 -54.5q-213 0 -382.5 93t-265 259.5t-95.5 376.5t95.5 376.5t265 259.5t382.5 93zM809 1268q-233 0 -385 -156t-152 -395t152 -395t385 -156
q234 0 385.5 155.5t151.5 395.5t-151.5 395.5t-385.5 155.5z" />
    <glyph glyph-name="uni25CF" unicode="&#x25cf;" horiz-adv-x="1613" 
d="M807 1446q-158 0 -296 -54.5t-235.5 -150t-153.5 -231.5t-56 -293t56 -293t153.5 -231.5t235.5 -150t296 -54.5q213 0 382.5 93t265 259.5t95.5 376.5t-95.5 376.5t-265 259.5t-382.5 93z" />
    <glyph glyph-name="uni25FD" unicode="&#x25fd;" horiz-adv-x="1253" 
d="M100 0v1055h1053v-1055h-1053zM924 840h-596v-623h596v623z" />
    <glyph glyph-name="uni25FE" unicode="&#x25fe;" horiz-adv-x="1253" 
d="M100 0v1055h1053v-1055h-1053z" />
    <glyph glyph-name="uni262E" unicode="&#x262e;" horiz-adv-x="1597" 
d="M66 717q0 210 93.5 376.5t261 259.5t378.5 93t379 -93t262 -259.5t94 -376.5t-94 -376.5t-262 -259.5t-379 -93t-378.5 93t-261 259.5t-93.5 376.5zM356 551l332 334v303q-168 -31 -271.5 -159.5t-103.5 -311.5q0 -91 43 -166zM909 1188v-305l330 -334q47 76 47 168
q0 183 -104 311.5t-273 159.5zM1145 365l-236 241v-360q141 24 236 119zM688 246v356l-235 -240q99 -92 235 -116z" />
    <glyph glyph-name="uni26AA" unicode="&#x26aa;" horiz-adv-x="1179" 
d="M590 1040q227 0 378.5 -150t151.5 -374q0 -148 -69 -268.5t-190.5 -189t-270.5 -68.5q-227 0 -379 151t-152 375t152 374t379 150zM590 821q-126 0 -212.5 -88t-86.5 -217t86.5 -217t212.5 -88t212.5 88t86.5 217t-86.5 217t-212.5 88z" />
    <glyph glyph-name="uni26AB" unicode="&#x26ab;" horiz-adv-x="1179" 
d="M590 1040q227 0 378.5 -150t151.5 -374q0 -148 -69 -268.5t-190.5 -189t-270.5 -68.5q-227 0 -379 151t-152 375t152 374t379 150z" />
    <glyph glyph-name="uni2713" unicode="&#x2713;" horiz-adv-x="1988" 
d="M737 0l-717 715l203 203l514 -510l1026 1026l205 -203z" />
    <glyph glyph-name="uni2715" unicode="&#x2715;" horiz-adv-x="1570" 
d="M70 1231l204 203l512 -512l512 512l205 -203l-514 -514l514 -514l-205 -203l-512 514l-514 -514l-202 203l514 514z" />
    <glyph glyph-name="uni2780" unicode="&#x2780;" horiz-adv-x="1617" 
d="M809 1446q159 0 297.5 -54.5t236.5 -150t154.5 -231.5t56.5 -293t-56.5 -293t-154.5 -231.5t-236.5 -150t-297.5 -54.5q-213 0 -382.5 93t-265 259.5t-95.5 376.5t95.5 376.5t265 259.5t382.5 93zM809 1268q-233 0 -385 -156t-152 -395t152 -395t385 -156
q234 0 385.5 155.5t151.5 395.5t-151.5 395.5t-385.5 155.5zM733 1028v62h187v-744l-191 -2v442q-18 -6 -39 -6h-127v174h117q25 0 39 21.5t14 52.5z" />
    <glyph glyph-name="uni2781" unicode="&#x2781;" horiz-adv-x="1617" 
d="M809 1446q159 0 297.5 -54.5t236.5 -150t154.5 -231.5t56.5 -293t-56.5 -293t-154.5 -231.5t-236.5 -150t-297.5 -54.5q-213 0 -382.5 93t-265 259.5t-95.5 376.5t95.5 376.5t265 259.5t382.5 93zM809 1268q-233 0 -385 -156t-152 -395t152 -395t385 -156
q234 0 385.5 155.5t151.5 395.5t-151.5 395.5t-385.5 155.5zM696 805h-192v14q0 127 83.5 205t209.5 78q134 0 217.5 -69.5t83.5 -182.5q0 -75 -36.5 -125.5t-100.5 -95.5l-152 -109h297v-176h-594v166l299 207q84 62 84 129q0 38 -27 61t-69 23q-47 0 -75 -30.5t-28 -88.5
v-6z" />
    <glyph glyph-name="uni2782" unicode="&#x2782;" horiz-adv-x="1617" 
d="M809 1446q159 0 297.5 -54.5t236.5 -150t154.5 -231.5t56.5 -293t-56.5 -293t-154.5 -231.5t-236.5 -150t-297.5 -54.5q-213 0 -382.5 93t-265 259.5t-95.5 376.5t95.5 376.5t265 259.5t382.5 93zM809 1268q-233 0 -385 -156t-152 -395t152 -395t385 -156
q234 0 385.5 155.5t151.5 395.5t-151.5 395.5t-385.5 155.5zM705 850h-193q3 118 81.5 185t215.5 67q132 0 208.5 -58t76.5 -149q0 -62 -35.5 -103t-89.5 -57q68 -14 106.5 -58.5t38.5 -111.5q0 -108 -83.5 -170.5t-231.5 -62.5q-150 0 -229 68.5t-81 197.5h197
q3 -48 31 -75t80 -27q47 0 77.5 23t30.5 61q0 40 -28 62t-82 22h-47v120h45q46 0 75 20.5t29 55.5t-25.5 56.5t-66.5 21.5q-46 0 -71.5 -23.5t-28.5 -64.5z" />
    <glyph glyph-name="uni2783" unicode="&#x2783;" horiz-adv-x="1617" 
d="M809 1446q159 0 297.5 -54.5t236.5 -150t154.5 -231.5t56.5 -293t-56.5 -293t-154.5 -231.5t-236.5 -150t-297.5 -54.5q-213 0 -382.5 93t-265 259.5t-95.5 376.5t95.5 376.5t265 259.5t382.5 93zM809 1268q-233 0 -385 -156t-152 -395t152 -395t385 -156
q234 0 385.5 155.5t151.5 395.5t-151.5 395.5t-385.5 155.5zM453 676l301 414h241v-420h111v-164h-111v-162h-190v162h-352v170zM805 670v243l-174 -243h174z" />
    <glyph glyph-name="uni2784" unicode="&#x2784;" horiz-adv-x="1617" 
d="M809 1446q159 0 297.5 -54.5t236.5 -150t154.5 -231.5t56.5 -293t-56.5 -293t-154.5 -231.5t-236.5 -150t-297.5 -54.5q-213 0 -382.5 93t-265 259.5t-95.5 376.5t95.5 376.5t265 259.5t382.5 93zM809 1268q-233 0 -385 -156t-152 -395t152 -395t385 -156
q234 0 385.5 155.5t151.5 395.5t-151.5 395.5t-385.5 155.5zM553 1090h502v-166h-348l-9 -129q56 53 146 53q112 0 181 -69t69 -181q0 -119 -80.5 -192.5t-208.5 -73.5q-120 0 -197 65.5t-86 173.5h191q6 -31 31.5 -49t62.5 -18q39 0 64.5 26t25.5 68t-26 68t-66 26
q-60 3 -88 -51h-185z" />
    <glyph glyph-name="uni2785" unicode="&#x2785;" horiz-adv-x="1617" 
d="M809 1446q159 0 297.5 -54.5t236.5 -150t154.5 -231.5t56.5 -293t-56.5 -293t-154.5 -231.5t-236.5 -150t-297.5 -54.5q-213 0 -382.5 93t-265 259.5t-95.5 376.5t95.5 376.5t265 259.5t382.5 93zM809 1268q-233 0 -385 -156t-152 -395t152 -395t385 -156
q234 0 385.5 155.5t151.5 395.5t-151.5 395.5t-385.5 155.5zM487 705q0 181 90 289t238 108q107 0 184.5 -62t94.5 -168h-187q-8 37 -35.5 59.5t-68.5 22.5q-62 0 -99.5 -55t-37.5 -133v-35q45 100 170 100q120 0 192 -67.5t72 -179.5q0 -114 -80.5 -183t-212.5 -69
q-149 0 -234.5 102t-85.5 271zM909 584q0 44 -28 72t-74 28t-74 -28t-28 -72t28 -71.5t74 -27.5t74 27.5t28 71.5z" />
    <glyph glyph-name="uni2786" unicode="&#x2786;" horiz-adv-x="1617" 
d="M809 1446q159 0 297.5 -54.5t236.5 -150t154.5 -231.5t56.5 -293t-56.5 -293t-154.5 -231.5t-236.5 -150t-297.5 -54.5q-213 0 -382.5 93t-265 259.5t-95.5 376.5t95.5 376.5t265 259.5t382.5 93zM809 1268q-233 0 -385 -156t-152 -395t152 -395t385 -156
q234 0 385.5 155.5t151.5 395.5t-151.5 395.5t-385.5 155.5zM537 922v168h557v-156l-283 -590h-215l285 578h-344z" />
    <glyph glyph-name="uni2787" unicode="&#x2787;" horiz-adv-x="1617" 
d="M809 1446q159 0 297.5 -54.5t236.5 -150t154.5 -231.5t56.5 -293t-56.5 -293t-154.5 -231.5t-236.5 -150t-297.5 -54.5q-213 0 -382.5 93t-265 259.5t-95.5 376.5t95.5 376.5t265 259.5t382.5 93zM809 1268q-233 0 -385 -156t-152 -395t152 -395t385 -156
q234 0 385.5 155.5t151.5 395.5t-151.5 395.5t-385.5 155.5zM496 553q0 136 147 182q-123 52 -123 168q0 88 78 143.5t211 55.5t212 -55.5t79 -143.5q0 -64 -31.5 -102.5t-91.5 -65.5q145 -46 145 -182q0 -99 -83.5 -160t-229.5 -61q-145 0 -229 61t-84 160zM911 879
q0 36 -28.5 59t-73.5 23q-43 0 -71.5 -23t-28.5 -59t28.5 -59t71.5 -23q46 0 74 22.5t28 59.5zM924 569q0 40 -32 65t-83 25q-50 0 -82.5 -25t-32.5 -65q0 -37 33 -62.5t82 -25.5q50 0 82.5 25.5t32.5 62.5z" />
    <glyph glyph-name="uni2788" unicode="&#x2788;" horiz-adv-x="1617" 
d="M809 1446q159 0 297.5 -54.5t236.5 -150t154.5 -231.5t56.5 -293t-56.5 -293t-154.5 -231.5t-236.5 -150t-297.5 -54.5q-213 0 -382.5 93t-265 259.5t-95.5 376.5t95.5 376.5t265 259.5t382.5 93zM809 1268q-233 0 -385 -156t-152 -395t152 -395t385 -156
q234 0 385.5 155.5t151.5 395.5t-151.5 395.5t-385.5 155.5zM1128 729q0 -181 -89.5 -289t-237.5 -108q-107 0 -184.5 61.5t-94.5 167.5h187q8 -37 35.5 -59.5t68.5 -22.5q63 0 100 52.5t37 136.5v34q-47 -100 -172 -100q-119 0 -190.5 68t-71.5 180q0 114 80.5 183
t212.5 69q149 0 234 -102t85 -271zM707 850q0 -44 28 -72t74 -28t74 28t28 72t-28 71t-74 27t-74 -27t-28 -71z" />
    <glyph glyph-name="uni278A" unicode="&#x278a;" horiz-adv-x="1613" 
d="M807 1446q-158 0 -296 -54.5t-235.5 -150t-153.5 -231.5t-56 -293t56 -293t153.5 -231.5t235.5 -150t296 -54.5q213 0 382.5 93t265 259.5t95.5 376.5t-95.5 376.5t-265 259.5t-382.5 93zM731 1028v62h187v-744l-191 -2v442q-18 -6 -39 -6h-127v174h117q25 0 39 21.5
t14 52.5z" />
    <glyph glyph-name="uni278B" unicode="&#x278b;" horiz-adv-x="1613" 
d="M807 1446q-158 0 -296 -54.5t-235.5 -150t-153.5 -231.5t-56 -293t56 -293t153.5 -231.5t235.5 -150t296 -54.5q213 0 382.5 93t265 259.5t95.5 376.5t-95.5 376.5t-265 259.5t-382.5 93zM694 805h-192v14q0 127 83.5 205t209.5 78q134 0 217.5 -69.5t83.5 -182.5
q0 -75 -37 -125.5t-101 -95.5l-151 -109h297v-176h-594v166l299 207q84 62 84 129q0 38 -27 61t-69 23q-47 0 -75 -30.5t-28 -88.5v-6z" />
    <glyph glyph-name="uni278C" unicode="&#x278c;" horiz-adv-x="1613" 
d="M807 1446q-158 0 -296 -54.5t-235.5 -150t-153.5 -231.5t-56 -293t56 -293t153.5 -231.5t235.5 -150t296 -54.5q213 0 382.5 93t265 259.5t95.5 376.5t-95.5 376.5t-265 259.5t-382.5 93zM702 850h-192q3 118 81.5 185t215.5 67q132 0 208.5 -58t76.5 -149
q0 -62 -35.5 -103t-89.5 -57q68 -14 106.5 -58.5t38.5 -111.5q0 -108 -83.5 -170.5t-231.5 -62.5q-150 0 -229 68.5t-81 197.5h197q3 -48 31 -75t80 -27q47 0 77.5 23t30.5 61q0 40 -28 62t-82 22h-48v120h46q46 0 75 20.5t29 55.5t-25.5 56.5t-66.5 21.5q-46 0 -72 -23.5
t-29 -64.5z" />
    <glyph glyph-name="uni278D" unicode="&#x278d;" horiz-adv-x="1613" 
d="M807 1446q-158 0 -296 -54.5t-235.5 -150t-153.5 -231.5t-56 -293t56 -293t153.5 -231.5t235.5 -150t296 -54.5q213 0 382.5 93t265 259.5t95.5 376.5t-95.5 376.5t-265 259.5t-382.5 93zM451 676l301 414h241v-420h111v-164h-111v-162h-190v162h-352v170zM803 670v243
l-174 -243h174z" />
    <glyph glyph-name="uni278E" unicode="&#x278e;" horiz-adv-x="1613" 
d="M807 1446q-158 0 -296 -54.5t-235.5 -150t-153.5 -231.5t-56 -293t56 -293t153.5 -231.5t235.5 -150t296 -54.5q213 0 382.5 93t265 259.5t95.5 376.5t-95.5 376.5t-265 259.5t-382.5 93zM551 1090h502v-166h-348l-9 -129q56 53 146 53q112 0 181 -69t69 -181
q0 -119 -80.5 -192.5t-208.5 -73.5q-120 0 -197 65.5t-86 173.5h191q6 -31 31.5 -49t62.5 -18q39 0 64.5 26t25.5 68t-26 68t-66 26q-60 3 -88 -51h-185z" />
    <glyph glyph-name="uni278F" unicode="&#x278f;" horiz-adv-x="1613" 
d="M807 1446q-158 0 -296 -54.5t-235.5 -150t-153.5 -231.5t-56 -293t56 -293t153.5 -231.5t235.5 -150t296 -54.5q213 0 382.5 93t265 259.5t95.5 376.5t-95.5 376.5t-265 259.5t-382.5 93zM485 705q0 181 90 289t238 108q107 0 184.5 -62t94.5 -168h-187q-8 37 -35.5 59.5
t-68.5 22.5q-62 0 -99.5 -55t-37.5 -133v-35q45 100 170 100q120 0 192 -67.5t72 -179.5q0 -114 -80.5 -183t-212.5 -69q-149 0 -234.5 102t-85.5 271zM907 584q0 44 -28 72t-74 28t-74.5 -28t-28.5 -72t28.5 -71.5t74.5 -27.5t74 27.5t28 71.5z" />
    <glyph glyph-name="uni2790" unicode="&#x2790;" horiz-adv-x="1613" 
d="M807 1446q-158 0 -296 -54.5t-235.5 -150t-153.5 -231.5t-56 -293t56 -293t153.5 -231.5t235.5 -150t296 -54.5q213 0 382.5 93t265 259.5t95.5 376.5t-95.5 376.5t-265 259.5t-382.5 93zM535 922v168h557v-156l-283 -590h-215l285 578h-344z" />
    <glyph glyph-name="uni2791" unicode="&#x2791;" horiz-adv-x="1613" 
d="M807 1446q-158 0 -296 -54.5t-235.5 -150t-153.5 -231.5t-56 -293t56 -293t153.5 -231.5t235.5 -150t296 -54.5q213 0 382.5 93t265 259.5t95.5 376.5t-95.5 376.5t-265 259.5t-382.5 93zM494 553q0 136 147 182q-123 52 -123 168q0 88 78 143.5t211 55.5t212 -55.5
t79 -143.5q0 -64 -31.5 -102.5t-91.5 -65.5q145 -46 145 -182q0 -99 -83.5 -160t-229.5 -61q-145 0 -229 61t-84 160zM909 879q0 36 -28.5 59t-73.5 23q-43 0 -71.5 -23t-28.5 -59t28.5 -59t71.5 -23q46 0 74 22.5t28 59.5zM922 569q0 40 -32 65t-83 25q-50 0 -82.5 -25
t-32.5 -65q0 -37 33 -62.5t82 -25.5q50 0 82.5 25.5t32.5 62.5z" />
    <glyph glyph-name="uni2792" unicode="&#x2792;" horiz-adv-x="1613" 
d="M807 1446q-158 0 -296 -54.5t-235.5 -150t-153.5 -231.5t-56 -293t56 -293t153.5 -231.5t235.5 -150t296 -54.5q213 0 382.5 93t265 259.5t95.5 376.5t-95.5 376.5t-265 259.5t-382.5 93zM1126 729q0 -181 -89.5 -289t-237.5 -108q-107 0 -184.5 61.5t-94.5 167.5h187
q8 -37 35.5 -59.5t68.5 -22.5q63 0 100 52.5t37 136.5v34q-47 -100 -172 -100q-119 0 -190.5 68t-71.5 180q0 114 80.5 183t212.5 69q149 0 234 -102t85 -271zM705 850q0 -44 28 -72t74 -28t74 28t28 72t-28 71t-74 27t-74 -27t-28 -71z" />
    <glyph glyph-name="fl" unicode="&#xfb02;" horiz-adv-x="1226" 
d="M2 809v244h174v77q0 148 80 226t238 78h235v-246h-184q-86 0 -86 -86v-49h270v-244h-264v-809h-289v809h-174zM838 0v1434h288v-1434h-288z" />
    <glyph glyph-name="u1F10B" unicode="&#x1f10b;" horiz-adv-x="1617" 
d="M809 1446q159 0 297.5 -54.5t236.5 -150t154.5 -231.5t56.5 -293t-56.5 -293t-154.5 -231.5t-236.5 -150t-297.5 -54.5q-213 0 -382.5 93t-265 259.5t-95.5 376.5t95.5 376.5t265 259.5t382.5 93zM809 1268q-233 0 -385 -156t-152 -395t152 -395t385 -156
q234 0 385.5 155.5t151.5 395.5t-151.5 395.5t-385.5 155.5zM487 717q0 179 86 282t236 103t235.5 -103t85.5 -282t-85.5 -282t-235.5 -103t-236 103t-86 282zM932 717q0 99 -32.5 156t-90.5 57t-90.5 -57t-32.5 -156q0 -100 32.5 -156.5t90.5 -56.5t90.5 56.5t32.5 156.5z
" />
    <glyph glyph-name="u1F10C" unicode="&#x1f10c;" horiz-adv-x="1613" 
d="M807 1446q-158 0 -296 -54.5t-235.5 -150t-153.5 -231.5t-56 -293t56 -293t153.5 -231.5t235.5 -150t296 -54.5q213 0 382.5 93t265 259.5t95.5 376.5t-95.5 376.5t-265 259.5t-382.5 93zM485 717q0 179 86 282t236 103t235.5 -103t85.5 -282t-85.5 -282t-235.5 -103
t-236 103t-86 282zM930 717q0 99 -32.5 156t-90.5 57t-90.5 -57t-32.5 -156q0 -100 32.5 -156.5t90.5 -56.5t90.5 56.5t32.5 156.5z" />
    <glyph glyph-name="J.ss07" horiz-adv-x="1267" 
d="M41 559h309q0 -147 61.5 -229t186.5 -82q128 0 188 76.5t60 230.5v879h309v-871q0 -283 -143.5 -429t-413.5 -146q-271 0 -414.5 144t-142.5 427z" />
    <glyph glyph-name="Jcircumflex.ss07" horiz-adv-x="1267" 
d="M1128 1544l-124 121l-127 -121h-265l262 291h259l262 -291h-267zM41 559h309q0 -147 61.5 -229t186.5 -82q128 0 188 76.5t60 230.5v879h309v-871q0 -283 -143.5 -429t-413.5 -146q-271 0 -414.5 144t-142.5 427z" />
    <glyph glyph-name="Q.ss08" horiz-adv-x="1550" 
d="M1487 717q0 -191 -77.5 -348.5t-215.5 -255.5l178 -273h-309l-109 168q-81 -20 -178 -20q-207 0 -370 95t-251.5 261t-88.5 373t88.5 373t251.5 261t370 95t370 -95t252 -261t89 -373zM776 248h21l-146 223h310l77 -119q133 133 133 365q0 205 -108.5 337t-286.5 132
q-179 0 -288 -132t-109 -337t109 -337t288 -132z" />
    <glyph glyph-name="a.ss01" horiz-adv-x="1253" 
d="M870 913l29 140h254v-1053h-256l-25 147q-125 -157 -323 -157q-216 -2 -353 144.5t-137 393.5q0 242 137.5 390.5t350.5 148.5q207 0 323 -154zM612 223q117 0 186.5 83t69.5 218q0 136 -69.5 220.5t-186.5 84.5t-187.5 -84.5t-70.5 -220.5q0 -135 70 -218t188 -83z" />
    <glyph glyph-name="a.ss02" horiz-adv-x="1118" 
d="M571 1065q223 0 344 -98t121 -285v-682h-254l-22 133q-122 -145 -320 -145q-175 0 -278 81.5t-103 229.5q0 168 124.5 258t361.5 90h207v51q0 72 -50 114t-139 42q-84 0 -138 -35t-63 -94h-278q15 154 147 247t340 93zM506 197q113 0 178.5 64.5t67.5 172.5v21h-211
q-91 0 -141 -36t-50 -102q0 -55 42 -87.5t114 -32.5z" />
    <glyph glyph-name="aacute.ss01" horiz-adv-x="1253" 
d="M670 1454h329l-268 -289h-211zM870 913l29 140h254v-1053h-256l-25 147q-125 -157 -323 -157q-216 -2 -353 144.5t-137 393.5q0 242 137.5 390.5t350.5 148.5q207 0 323 -154zM612 223q117 0 186.5 83t69.5 218q0 136 -69.5 220.5t-186.5 84.5t-187.5 -84.5t-70.5 -220.5
q0 -135 70 -218t188 -83z" />
    <glyph glyph-name="aacute.ss02" horiz-adv-x="1118" 
d="M618 1454h330l-268 -289h-211zM571 1065q223 0 344 -98t121 -285v-682h-254l-22 133q-122 -145 -320 -145q-175 0 -278 81.5t-103 229.5q0 168 124.5 258t361.5 90h207v51q0 72 -50 114t-139 42q-84 0 -138 -35t-63 -94h-278q15 154 147 247t340 93zM506 197
q113 0 178.5 64.5t67.5 172.5v21h-211q-91 0 -141 -36t-50 -102q0 -55 42 -87.5t114 -32.5z" />
    <glyph glyph-name="abreve.ss01" horiz-adv-x="1253" 
d="M614 1153q-136 0 -221.5 82.5t-91.5 218.5h207q0 -53 30.5 -84t82.5 -31q50 0 81 31.5t31 83.5h207q-6 -135 -95.5 -218t-230.5 -83zM870 913l29 140h254v-1053h-256l-25 147q-125 -157 -323 -157q-216 -2 -353 144.5t-137 393.5q0 242 137.5 390.5t350.5 148.5
q207 0 323 -154zM612 223q117 0 186.5 83t69.5 218q0 136 -69.5 220.5t-186.5 84.5t-187.5 -84.5t-70.5 -220.5q0 -135 70 -218t188 -83z" />
    <glyph glyph-name="abreve.ss02" horiz-adv-x="1118" 
d="M563 1153q-136 0 -221.5 82.5t-91.5 218.5h207q0 -53 30 -84t82 -31q50 0 81.5 31.5t31.5 83.5h207q-6 -135 -95.5 -218t-230.5 -83zM571 1065q223 0 344 -98t121 -285v-682h-254l-22 133q-122 -145 -320 -145q-175 0 -278 81.5t-103 229.5q0 168 124.5 258t361.5 90h207
v51q0 72 -50 114t-139 42q-84 0 -138 -35t-63 -94h-278q15 154 147 247t340 93zM506 197q113 0 178.5 64.5t67.5 172.5v21h-211q-91 0 -141 -36t-50 -102q0 -55 42 -87.5t114 -32.5z" />
    <glyph glyph-name="acircumflex.ss01" horiz-adv-x="1253" 
d="M745 1163l-124 121l-127 -121h-265l263 291h258l262 -291h-267zM870 913l29 140h254v-1053h-256l-25 147q-125 -157 -323 -157q-216 -2 -353 144.5t-137 393.5q0 242 137.5 390.5t350.5 148.5q207 0 323 -154zM612 223q117 0 186.5 83t69.5 218q0 136 -69.5 220.5
t-186.5 84.5t-187.5 -84.5t-70.5 -220.5q0 -135 70 -218t188 -83z" />
    <glyph glyph-name="acircumflex.ss02" horiz-adv-x="1118" 
d="M694 1163l-125 121l-127 -121h-264l262 291h258l263 -291h-267zM571 1065q223 0 344 -98t121 -285v-682h-254l-22 133q-122 -145 -320 -145q-175 0 -278 81.5t-103 229.5q0 168 124.5 258t361.5 90h207v51q0 72 -50 114t-139 42q-84 0 -138 -35t-63 -94h-278
q15 154 147 247t340 93zM506 197q113 0 178.5 64.5t67.5 172.5v21h-211q-91 0 -141 -36t-50 -102q0 -55 42 -87.5t114 -32.5z" />
    <glyph glyph-name="adieresis.ss01" horiz-adv-x="1253" 
d="M408 1180q-65 0 -109.5 43t-44.5 106q0 64 44.5 107t109.5 43q66 0 110.5 -43t44.5 -107q0 -63 -44.5 -106t-110.5 -43zM834 1180q-65 0 -109.5 43t-44.5 106q0 64 44.5 107t109.5 43q66 0 109.5 -42.5t43.5 -107.5q0 -63 -43.5 -106t-109.5 -43zM870 913l29 140h254
v-1053h-256l-25 147q-125 -157 -323 -157q-216 -2 -353 144.5t-137 393.5q0 242 137.5 390.5t350.5 148.5q207 0 323 -154zM612 223q117 0 186.5 83t69.5 218q0 136 -69.5 220.5t-186.5 84.5t-187.5 -84.5t-70.5 -220.5q0 -135 70 -218t188 -83z" />
    <glyph glyph-name="adieresis.ss02" horiz-adv-x="1118" 
d="M356 1180q-65 0 -109 43t-44 106q0 64 44 107t109 43q66 0 111 -43t45 -107q0 -63 -45 -106t-111 -43zM782 1180q-65 0 -109 43t-44 106q0 64 44 107t109 43q66 0 110 -43t44 -107q0 -63 -44 -106t-110 -43zM571 1065q223 0 344 -98t121 -285v-682h-254l-22 133
q-122 -145 -320 -145q-175 0 -278 81.5t-103 229.5q0 168 124.5 258t361.5 90h207v51q0 72 -50 114t-139 42q-84 0 -138 -35t-63 -94h-278q15 154 147 247t340 93zM506 197q113 0 178.5 64.5t67.5 172.5v21h-211q-91 0 -141 -36t-50 -102q0 -55 42 -87.5t114 -32.5z" />
    <glyph glyph-name="agrave.ss01" horiz-adv-x="1253" 
d="M580 1454l143 -295h-217l-256 295h330zM870 913l29 140h254v-1053h-256l-25 147q-125 -157 -323 -157q-216 -2 -353 144.5t-137 393.5q0 242 137.5 390.5t350.5 148.5q207 0 323 -154zM612 223q117 0 186.5 83t69.5 218q0 136 -69.5 220.5t-186.5 84.5t-187.5 -84.5
t-70.5 -220.5q0 -135 70 -218t188 -83z" />
    <glyph glyph-name="agrave.ss02" horiz-adv-x="1118" 
d="M528 1454l144 -295h-217l-256 295h329zM571 1065q223 0 344 -98t121 -285v-682h-254l-22 133q-122 -145 -320 -145q-175 0 -278 81.5t-103 229.5q0 168 124.5 258t361.5 90h207v51q0 72 -50 114t-139 42q-84 0 -138 -35t-63 -94h-278q15 154 147 247t340 93zM506 197
q113 0 178.5 64.5t67.5 172.5v21h-211q-91 0 -141 -36t-50 -102q0 -55 42 -87.5t114 -32.5z" />
    <glyph glyph-name="amacron.ss01" horiz-adv-x="1253" 
d="M303 1432h637v-205h-637v205zM870 913l29 140h254v-1053h-256l-25 147q-125 -157 -323 -157q-216 -2 -353 144.5t-137 393.5q0 242 137.5 390.5t350.5 148.5q207 0 323 -154zM612 223q117 0 186.5 83t69.5 218q0 136 -69.5 220.5t-186.5 84.5t-187.5 -84.5t-70.5 -220.5
q0 -135 70 -218t188 -83z" />
    <glyph glyph-name="amacron.ss02" horiz-adv-x="1118" 
d="M252 1432h637v-205h-637v205zM571 1065q223 0 344 -98t121 -285v-682h-254l-22 133q-122 -145 -320 -145q-175 0 -278 81.5t-103 229.5q0 168 124.5 258t361.5 90h207v51q0 72 -50 114t-139 42q-84 0 -138 -35t-63 -94h-278q15 154 147 247t340 93zM506 197
q113 0 178.5 64.5t67.5 172.5v21h-211q-91 0 -141 -36t-50 -102q0 -55 42 -87.5t114 -32.5z" />
    <glyph glyph-name="aogonek.ss01" horiz-adv-x="1253" 
d="M1028 -217h131v-193h-184q-105 0 -174.5 54.5t-69.5 144.5q0 134 160 246l-19 112q-125 -157 -323 -157q-216 -2 -353 144.5t-137 393.5q0 242 137.5 390.5t350.5 148.5q207 0 323 -154l29 140h254v-1053h2q-194 -87 -194 -164q0 -53 67 -53zM612 223q117 0 186.5 83
t69.5 218q0 136 -69.5 220.5t-186.5 84.5t-187.5 -84.5t-70.5 -220.5q0 -135 70 -218t188 -83z" />
    <glyph glyph-name="aogonek.ss02" horiz-adv-x="1118" 
d="M909 -217h131v-193h-184q-105 0 -174.5 54.5t-69.5 144.5q0 136 164 248l-16 96q-122 -145 -320 -145q-175 0 -278 81.5t-103 229.5q0 168 124.5 258t361.5 90h207v51q0 72 -50 114t-139 42q-84 0 -138 -35t-63 -94h-278q15 154 147 247t340 93q223 0 344 -98t121 -285
v-682q-194 -87 -194 -164q0 -53 67 -53zM506 197q113 0 178.5 64.5t67.5 172.5v21h-211q-91 0 -141 -36t-50 -102q0 -55 42 -87.5t114 -32.5z" />
    <glyph glyph-name="aring.ss01" horiz-adv-x="1253" 
d="M621 1133q-113 0 -190 71.5t-77 175.5q0 103 77.5 175.5t189.5 72.5t189 -72.5t77 -175.5q0 -104 -77 -175.5t-189 -71.5zM621 1499q-51 0 -85 -34t-34 -85q0 -52 34 -86t85 -34t84.5 34t33.5 86q0 51 -33.5 85t-84.5 34zM870 913l29 140h254v-1053h-256l-25 147
q-125 -157 -323 -157q-216 -2 -353 144.5t-137 393.5q0 242 137.5 390.5t350.5 148.5q207 0 323 -154zM612 223q117 0 186.5 83t69.5 218q0 136 -69.5 220.5t-186.5 84.5t-187.5 -84.5t-70.5 -220.5q0 -135 70 -218t188 -83z" />
    <glyph glyph-name="aring.ss02" horiz-adv-x="1118" 
d="M569 1133q-112 0 -189 71.5t-77 175.5q0 103 77 175.5t189 72.5t189.5 -72.5t77.5 -175.5q0 -104 -77 -175.5t-190 -71.5zM569 1499q-51 0 -84.5 -34t-33.5 -85q0 -52 33.5 -86t84.5 -34t85 34t34 86q0 51 -34 85t-85 34zM571 1065q223 0 344 -98t121 -285v-682h-254
l-22 133q-122 -145 -320 -145q-175 0 -278 81.5t-103 229.5q0 168 124.5 258t361.5 90h207v51q0 72 -50 114t-139 42q-84 0 -138 -35t-63 -94h-278q15 154 147 247t340 93zM506 197q113 0 178.5 64.5t67.5 172.5v21h-211q-91 0 -141 -36t-50 -102q0 -55 42 -87.5t114 -32.5z
" />
    <glyph glyph-name="atilde.ss01" horiz-adv-x="1253" 
d="M537 1274q-31 0 -49.5 -23t-18.5 -57h-172v41q0 94 55.5 157.5t141.5 63.5q40 0 72.5 -13.5t50 -29.5t41.5 -29.5t49 -13.5q30 0 47.5 22.5t17.5 57.5h172v-43q0 -94 -56 -157.5t-140 -63.5q-41 0 -74.5 14t-51 30t-40.5 30t-45 14zM870 913l29 140h254v-1053h-256
l-25 147q-125 -157 -323 -157q-216 -2 -353 144.5t-137 393.5q0 242 137.5 390.5t350.5 148.5q207 0 323 -154zM612 223q117 0 186.5 83t69.5 218q0 136 -69.5 220.5t-186.5 84.5t-187.5 -84.5t-70.5 -220.5q0 -135 70 -218t188 -83z" />
    </font>
</defs>
</svg>
